Сегодня идет свободное скачивание без начисления Download

Знахарь / Znachor (Ежи Гоффман) (1981, Драма, Мелодрама) DVDRip

Ответить на тему
 
Автор
Сообщение

UndegraundMen ®

Стаж: 3 года 9 месяцев

Сообщений: 28329

Торрент-статистика

Пост 20-Фев-2013 12:56

[Цитировать]

-Знахарь / Znachor - Русское название: Знахарь
Оригинальное название: Znachor
Производство: Польша
Год выпуска: 1981
Жанр: Драма, Мелодрама, ...
Возраст: 16+ |зрителям, достигшим 16 лет|
Описание фильма:
С гениальным хирургом Рафалом Вильчуром происходит трагедия, изменившая всю его жизнь. Уходят жена и дочь, в тот же день он оказывается на улице без денег и документов. Ему приходится пережить несколько лет скитаний и горя.
И все-таки судьба поворачивается к нему лицом. Найдя приют в семье мельника, он спасает его больного сына и становится членом семьи. Молва о «знахаре» расходится по всей округе… А вскоре он встречает и красивую девушку, похожую на жену…
Режиссер: Ежи Гоффман
Актеры: Артур Барчиш, Ежи Биньчицкий, Анна Дымна, Томаш Стокингер, Анджей Копичиньский
Продолжительность: 02:06:48
Перевод: Дублированный

Трейлер
Дата мировой премьеры: 12 апреля 1982
Дата выхода DVD релиза: 8 декабря 2011
Видеокодек: Xvid
Битрейт видео: ~1925 Кбит/с
Размер кадра: 720x448
Качество видео: DVDRip
Аудиокодек: AC3 6ch
Битрейт аудио: 384 Кбит/с

MediaInfo:

Общее
Полное имя : Znahar.1982.XviD.DVDRip..avi
Формат : AVI
Формат/Информация : Audio Video Interleave
Профиль формата : OpenDML
Размер файла : 2,06 Гбайт
Продолжительность : 2 ч. 6 м.
Общий поток : 2322 Кбит/сек
Программа кодирования : VirtualDubMod 1.5.10.2 (build 2540/release)
Библиотека кодирования : VirtualDubMod build 2540/release
Видео
Идентификатор : 0
Формат : MPEG-4 Visual
Профиль формата : Advanced [email protected]
Параметр BVOP формата : 1
Параметр QPel формата : Нет
Параметр GMC формата : Без точки перехода
Параметр матрицы формата : Выборочная
Идентификатор кодека : XVID
Идентификатор кодека/Подсказка : XviD
Продолжительность : 2 ч. 6 м.
Битрейт : 1925 Кбит/сек
Ширина : 720 пикселей
Высота : 448 пикселей
Соотношение сторон : 1,607
Частота кадров : 25,000 кадров/сек
Цветовое пространство : YUV
Субдискретизация насыщенности : 4:2:0
Битовая глубина : 8 бит
Тип развёртки : Прогрессивная
Метод сжатия : С потерями
Бит/(Пиксели*Кадры) : 0.239
Размер потока : 1,70 Гбайт (83%)
Библиотека кодирования : XviD 1.2.0.dev47 (UTC 2006-11-01)
Аудио
Идентификатор : 1
Формат : AC-3
Формат/Информация : Audio Coding 3
Расширение режима : CM (complete main)
Параметр Endianness формата : Big
Идентификатор кодека : 2000
Продолжительность : 2 ч. 6 м.
Вид битрейта : Постоянный
Битрейт : 384 Кбит/сек
Каналы : 6 каналов
Расположение каналов : Front: L C R, Side: L R, LFE
Частота : 48,0 КГц
Битовая глубина : 16 бит
Метод сжатия : С потерями
Размер потока : 348 Мбайт (17%)
Выравнивание : Разделение по промежуткам
Продолжительность промежутка : 40 мс. (1,00 видеокадр)
Время предзагрузки промежутка : 500 мс.
Язык : Russian
Скриншоты:
       
       
-
Вне форума [Профиль] [ЛС]
Показать сообщения:    
Ответить на тему

Текущее время: Сегодня 14:56

Часовой пояс: GMT + 3



Вы не можете начинать темы
Вы не можете отвечать на сообщения
Вы не можете редактировать свои сообщения
Вы не можете удалять свои сообщения
Вы не можете голосовать в опросах
Вы не можете прикреплять файлы к сообщениям
Вы не можете скачивать файлы