Сегодня идет свободное скачивание без начисления Download

Автобусная остановка / Bus Stop (1956) [H.264] DVDRip

Ответить на тему
 
Автор
Сообщение

UndegraundMen ®

Стаж: 3 года 9 месяцев

Сообщений: 28329

Торрент-статистика

Пост 22-Фев-2013 12:04

[Цитировать]

-Автобусная остановка / Bus Stop (1956) [H.264] DVDRip-«The coming of age of Bo Decker...and the girl who made him a man!»- Русское название: Автобусная остановка
Оригинальное название: Bus Stop
Год выпуска: 1956
Жанр: Драма, Мелодрама, Комедия
Страна: США
Производство: 20th Century Fox Film Corporation, Marilyn Monroe Productions
Описание фильма:
В кафе «Синий Дракон» разбитной ковбой Бо, приехавший в город участвовать в родео, решительно и грубо требует от героини фильма внимания и благосклонности. Шери даже вынуждена сесть на автобус, чтобы бежать из города, но Бо отправляется следом.
Автобус заносит снегом и пассажиры вынуждены провести ночь в кафе, где происходит драка между водителем автобуса, защищающим пассажирку, и ковбоем, преследующим эту женщину. Бо терпит постыдное поражение, он унижен. На следующий день, когда буря закончилась, Бо начинает понимать, что ничего не добьется, если будет действовать как скотина.
Режиссер: Джошуа Логан
Сценарий: Джордж Аксельрод, Уильям Индж
Продюсер: Бадди Адлер
Актеры: Мэрилин Монро, Дон Мюррэй, Артур О’Коннелл, Бетти Филд, Айлин Хекарт, Роберт Брэй, Хоуп Лэнг, Ганс Конрид, Макс Шоуолтер, Линда Брэйс
Продолжительность: 01:34:27
Перевод: Многоголосый закадровый
Субтитры: Отсутствуют

Дата мировой премьеры: 31 августа 1956
Видеокодек: MPEG-4 AVC/H.264
Битрейт видео: ~2499 Кбит/сек
Размер кадра: 720x288
Качество видео: DVDRip
Аудиокодек: AC3 2.0
Битрейт аудио: 192 kbps

Реценция с кинопоиска от Wanksta:

Посмотрел как-то этот фильм просто случайно, переключал каналы по телевизору и остановился, когда увидел знакомые все лица, ну, и заинтересовался, потому что если там Мэрилин, то пропустить нельзя. И был так восхищён этим фильмом, так посмеялся от души, ребята очень здорово сыграли, я имею в виду Монро и Мюррэй.
Порадовал меня этот фильм своим настроем, сюжетом, взаимоотношениями, где этот упёртый ковбой всё приставал к девушке и навязывал ей выйти замуж за него. Этот фильм отражает все наши поступки, сами вспомните, наверняка, и вы были упёртыми и не соглашались с вашими близкими когда-нибудь — это здесь выражено просто в другой форме.
В общем, хороший фильм получился, весёлый, и Мэрилин здесь просто неотразима, меня этот фильм ещё больше влюбил в её обаятельный образ. Этот фильм подходит для просмотра, как в большой компании, так и в одиночку для любителей данного жанра и для поклонников такого кино.

10 из 10

Награды:

Оскар, 1957 год
Номинации (1):
Лучшая мужская роль второго плана (Дон Мюррэй)
Золотой глобус, 1957 год
Номинации (2):
Лучшая женская роль (комедия или мюзикл) (Мэрилин Монро)
Лучший фильм (комедия или мюзикл)
Британская академия, 1957 год
Номинации (1):
Самый многообещающий новичок (Дон Мюррэй)

MediaInfo:

Общее
Уникальный идентификатор : 224223297478076591532194970244788549414 (0xA8AFD616B91F23F2BF3E4E4BA1947726)
Полное имя : D:\Downloads\Автобусная остановка.mkv
Формат : Matroska
Версия формата : Version 2
Размер файла : 1,78 Гбайт
Продолжительность : 1 ч. 34 м.
Общий поток : 2692 Кбит/сек
Дата кодирования : UTC 2013-02-19 08:50:43
Программа кодирования : mkvmerge v5.7.0 ('The Whirlwind') built on Jul 29 2012 15:12:35
Библиотека кодирования : libebml v1.2.3 + libmatroska v1.3.0
Видео
Идентификатор : 1
Формат : AVC
Формат/Информация : Advanced Video Codec
Профиль формата : [url=mailto:[email protected]][email protected][/url]
Параметр CABAC формата : Да
Параметр ReFrames формата : 8 кадров
Режим смешивания : Header stripping
Идентификатор кодека : V_MPEG4/ISO/AVC
Продолжительность : 1 ч. 34 м.
Битрейт : 2499 Кбит/сек
Ширина : 720 пикселей
Высота : 288 пикселей
Соотношение сторон : 2,500
Режим частоты кадров : Постоянный
Частота кадров : 25,000 кадров/сек
Цветовое пространство : YUV
Субдискретизация насыщенности : 4:2:0
Битовая глубина : 8 бит
Тип развёртки : Прогрессивная
Бит/(Пиксели*Кадры) : 0.482
Размер потока : 1,61 Гбайт (91%)
Заголовок : Bus Stop
Библиотека кодирования : x264 core 129 r2230 1cffe9f
Настройки программы : cabac=1 / ref=8 / deblock=1:0:0 / analyse=0x3:0x133 / me=umh / subme=9 / psy=1 / psy_rd=1.00:0.00 / mixed_ref=1 / me_range=16 / chroma_me=1 / trellis=2 / 8x8dct=1 / cqm=0 / deadzone=21,11 / fast_pskip=1 / chroma_qp_offset=-2 / threads=3 / lookahead_threads=1 / sliced_threads=0 / nr=0 / decimate=1 / interlaced=0 / bluray_compat=0 / constrained_intra=0 / bframes=3 / b_pyramid=2 / b_adapt=2 / b_bias=0 / direct=3 / weightb=1 / open_gop=0 / weightp=2 / keyint=250 / keyint_min=25 / scenecut=40 / intra_refresh=0 / rc_lookahead=60 / rc=2pass / mbtree=1 / bitrate=2499 / ratetol=1.0 / qcomp=0.60 / qpmin=0 / qpmax=69 / qpstep=4 / cplxblur=20.0 / qblur=0.5 / ip_ratio=1.40 / aq=1:1.00
Язык : English
Default : Да
Forced : Нет
Аудио
Идентификатор : 2
Формат : AC-3
Формат/Информация : Audio Coding 3
Расширение режима : CM (complete main)
Параметр Endianness формата : Big
Режим смешивания : Header stripping
Идентификатор кодека : A_AC3
Продолжительность : 1 ч. 34 м.
Вид битрейта : Постоянный
Битрейт : 192 Кбит/сек
Каналы : 2 канала
Расположение каналов : Front: L R
Частота : 48,0 КГц
Битовая глубина : 16 бит
Метод сжатия : С потерями
Размер потока : 130 Мбайт (7%)
Заголовок : Многоголосый закадровый
Язык : Russian
Default : Да
Forced : Нет
Скриншоты:                    Время раздачи: с 12:00 до 24:00 по Москве (выходные круглосуточно), до 10 скачавших
Вне форума [Профиль] [ЛС]
Похожие темы
Форум Тема Автор Торрент Отв. Посл. сообщение
./templates/default/images/folder_dl.gif Фильмы 2011-2016 Скорость: Автобус 657 / Heist (Скотт Манн / Scott Mann) [2015 г., боевик, триллер, WEB-DLRip] Dub (iTunes) Clavik
1 | 0

1 | 511

23

2016-01-02 08:15
Dracula Последнее
Показать сообщения:    
Ответить на тему

Текущее время: Сегодня 08:53

Часовой пояс: GMT + 3



Вы не можете начинать темы
Вы не можете отвечать на сообщения
Вы не можете редактировать свои сообщения
Вы не можете удалять свои сообщения
Вы не можете голосовать в опросах
Вы не можете прикреплять файлы к сообщениям
Вы не можете скачивать файлы