Сегодня идет свободное скачивание без начисления Download

Плетеный человек / The Wicker Man [Theatrical Cut] (1973) DVDRip

Ответить на тему
 
Автор
Сообщение

UndegraundMen ®

Стаж: 3 года 9 месяцев

Сообщений: 28329

Торрент-статистика

Пост 23-Фев-2013 01:08

[Цитировать]

-Плетеный человек / The Wicker Man (1973) DVDRip
«...A totally corrupt shocker from the author of Sleuth and Frenzy!»
- Русское название: Плетеный человек
Оригинальное название: The Wicker Man
Год выпуска: 1973
Производство: Великобритания, British Lion Film Corporation
Жанр: Ужасы, триллер, драма, детектив
Перевод: Профессиональный (многоголосый закадровый) [CP Digital]
Субтитры: Отсутствуют
Режиссер: Робин Харди
Актеры: Эдвард Вудворд, Кристофер Ли, Дайан Чиленто, Бритт Экланд, Ингрид Питт, Линдсей Кемп, Расселл Уотерс, Обри Моррис, Ирен Сантерс, Уолтер Карр, Йен Кэмпбелл, Лесли Блэкэтер, Рой Бойд, Питер Брюис, Барбара Рафферти, Джульетт Кэтзоу, Росс Кэмпбелл, Пенни Клюер, Майкл Коул
Описание фильма:
На небольшой остров Саммерайленд, расположенный недалеко от Шотландии, для расследования исчезновения местной девочки прилетает сержант Хоуи, полицейский инспектор с «большой земли» и убежденный христианин. На острове, однако, он моментально сталкивается с холодной враждебностью местных жителей по отношению к его расследованию и к нему самому.
Сначала все утверждают, что никогда не видели девочки, фотографию которой полицейский показывает жителям острова, что ничего о ней не знают, но через некоторое время Хоуи удается выяснить, что девочка такая на острове все-таки была. С этого момента те же самые люди, что вначале утверждали, будто никогда ее не видели, внезапно «вспомнили».
Что действительно, была такая девочка в их рядах, но, к сожалению, полгода назад скончалась. Вскрыв ее могилу, полицейский находит в гробу вместо трупа кроличью тушку…- -Продолжительность: 01:27:37
Качество видео: DVDRip
Видеокодек: XviD
Битрейт видео: 1050 Кбит/сек
Размер кадра: 656x352
Аудио : Русский, MP3, 2 ch, 128 Кбит/сек

Награды и номинации

  • Сатурн, 1979 год
    Победитель (1):
    Лучший фильм ужасов
    Номинации (4):
    Лучший режиссер (Робин Харди)
    Лучший актер (Кристофер Ли)
    Лучший сценарий
    Лучшая музыка

Знаете ли вы, что...

  • В фильме есть сцена, когда Ива раздевается у себя в комнате и заманивает Хоуи к себе стуками и пением. Бритт Экланд была согласна раздеться только до пояса, поэтому Харди пошел на хитрость. Он согласился на ее условия, отснял эпизод, а когда Экланд ушла со съемочной площадки, вызвал дублершу и доснял сцены с полной обнаженкой. Узнав об этом, актриса пришла в бешенство. «Сама дура», — ответил Харди. Между прочим, дублершей Экланд была Энни Росс, будущий лауреат «Золотого глобуса» и Венецианского фестиваля.
  • Хотя действие фильма происходит в мае, его снимали в ноябре.
  • На главную роль зазывали Майкла Йорка, потом Дэвида Хэммингса, но поскольку те не выразили энтузиазма, Харди пригласил телевизионного актера Эдварда Вудварда (по рекомендации сценариста Энтони Шаффера и продюсера Питера Снелла).
  • Бывшая звезда студии «Хаммер» Кристофер Ли сыграл свою роль бесплатно. К тому времени дела Ли шли из рук вон плохо, и ему показалось, что роль графа просто грандиозна, и что она поможет ему поправить дела.
  • Вокруг фильма об оккультизме вырос самый настоящий культ. С 2004 года в местах, где проходили съемки (Дамфрис и Гэллоуэй, Шотландия), проводится музыкальный фестиваль «Плетеный человек». В конце фестиваля сжигают гигантскую куклу Плетеного человека, — приносят жертву богам фестиваля.
  • В финальной сцене Вудворд читал свои реплики, глядя сквозь прутья на близлежащие утесы, на которых были размещены гигантские транспаранты с текстом.

MediaInfo

Код:
Общее
Полное имя                               : E:\Раздачи\Видео\Плетеный человек (1973) DVDRip.avi
Формат                                   : AVI
Формат/Информация                        : Audio Video Interleave
Размер файла                             : 744 Мбайт
Продолжительность                        : 1 ч. 27 м.
Общий поток                              : 1187 Кбит/сек
Программа кодирования                    : VirtualDubMod 1.5.10.2 (build 2540/release)
Библиотека кодирования                   : VirtualDubMod build 2540/release
Видео
Идентификатор                            : 0
Формат                                   : MPEG-4 Visual
Профиль формата                          : Advanced [email protected]
Параметр BVOP формата                    : 1
Параметр QPel формата                    : Нет
Параметр GMC формата                     : Без точки перехода
Параметр матрицы формата                 : Выборочная
Идентификатор кодека                     : XVID
Идентификатор кодека/Подсказка           : XviD
Продолжительность                        : 1 ч. 27 м.
Битрейт                                  : 1050 Кбит/сек
Ширина                                   : 656 пикселей
Высота                                   : 352 пикселя
Соотношение сторон                       : 1,85:1
Частота кадров                           : 23,976 кадра/сек
Цветовое пространство                    : YUV
Субдискретизация насыщенности            : 4:2:0
Битовая глубина                          : 8 бит
Тип развёртки                            : Прогрессивная
Метод сжатия                             : С потерями
Бит/(Пиксели*Кадры)                      : 0.190
Размер потока                            : 658 Мбайт (88%)
Библиотека кодирования                   : XviD 64
Аудио
Идентификатор                            : 1
Формат                                   : MPEG Audio
Версия формата                           : Version 1
Профиль формата                          : Layer 3
Режим                                    : Joint stereo
Расширение режима                        : MS Stereo
Идентификатор кодека                     : 55
Идентификатор кодека/Подсказка           : MP3
Продолжительность                        : 1 ч. 27 м.
Вид битрейта                             : Постоянный
Битрейт                                  : 128 Кбит/сек
Каналы                                   : 2 канала
Частота                                  : 48,0 КГц
Метод сжатия                             : С потерями
Размер потока                            : 80,2 Мбайт (11%)
Выравнивание                             : Соединение по промежуткам
Продолжительность промежутка             : 42  мс. (1,00 видеокадр)
Время предзагрузки промежутка            : 504  мс.
Скриншоты:
         
         -Время раздачи: 9.00 - 23.00 (по мере возможности...)
Вне форума [Профиль] [ЛС]
Показать сообщения:    
Ответить на тему

Текущее время: Сегодня 05:11

Часовой пояс: GMT + 3



Вы не можете начинать темы
Вы не можете отвечать на сообщения
Вы не можете редактировать свои сообщения
Вы не можете удалять свои сообщения
Вы не можете голосовать в опросах
Вы не можете прикреплять файлы к сообщениям
Вы не можете скачивать файлы