Сегодня идет свободное скачивание без начисления Download

Там, где гнездятся орлы / Where Eagles Dare (1968) HDRip

Ответить на тему
 
Автор
Сообщение

UndegraundMen ®

Стаж: 3 года 9 месяцев

Сообщений: 28329

Торрент-статистика

Пост 02-Мар-2013 16:41

[Цитировать]

-Там, где гнездятся орлы / Where Eagles Dare (1968) HDRip- Русское название: Там, где гнездятся орлы
Оригинальное название: Where Eagles Dare
Год выпуска: 1968
Жанр: Военный, Боевик, Приключения
Описание фильма:
Опасная миссия по спасению плененного генерала армии США из неприступной немецкой крепости в Альпах под силу лишь элитным подразделениям «коммандос». Но от командования поступает секретная директива: не доверять никому.
Есть подозрение, что операция будет поставлена под угрозу из-за действий двойного агента, работающего на немцев.
Режиссер: Брайан Дж. Хаттон
Актеры: Ричард Бёртон, Клинт Иствуд, Мэри Юр, Патрик Уаймарк, Майкл Хордерн, Дональд Хьюстон, Питер Бэкворт, Уильям Скуайр, Роберт Битти, Брук Уильямс
Продолжительность: 02:35:08
Перевод: Многоголосый закадровый-
Дата мировой премьеры: 4 декабря 1968-Видеокодек: Xvid
Битрейт видео: ~1619 kbit/s
Размер кадра: 720x304
Качество видео: HDRip
Битрейт аудио: Русский, AC3, 6 каналов, 384 Кбит/сек

MediaInfo:

Код:
Общее
Полное имя                               : D:\Tam.Gde.Orly.1968.HDRip.avi
Формат                                   : AVI
Формат/Информация                        : Audio Video Interleave
Профиль формата                          : OpenDML
Размер файла                             : 2,18 Гбайт
Продолжительность                        : 2 ч. 35 м.
Общий поток                              : 2015 Кбит/сек
Название фильма                          : Куда залетают только орлы / Where Eagles Dare (1968)
Режиссёр                                 : Shevon (BDRemux)
Программа кодирования                    : VirtualDubMod 1.5.10.3 | [url=http://www.virtualdub-fr.org]www.virtualdub-fr.org[/url] || (build 2550/release)
Правообладатель                          : AllFilms ([стерилизуемый трекер].org)
Видео
Идентификатор                            : 0
Формат                                   : MPEG-4 Visual
Профиль формата                          : Advanced [email protected]
Параметр BVOP формата                    : 1
Параметр QPel формата                    : Нет
Параметр GMC формата                     : Без точки перехода
Параметр матрицы формата                 : Выборочная
Идентификатор кодека                     : XVID
Идентификатор кодека/Подсказка           : XviD
Продолжительность                        : 2 ч. 35 м.
Битрейт                                  : 1619 Кбит/сек
Ширина                                   : 720 пикселей
Высота                                   : 304 пикселя
Соотношение сторон                       : 2,35:1
Частота кадров                           : 23,976 кадра/сек
Цветовое пространство                    : YUV
Субдискретизация насыщенности            : 4:2:0
Битовая глубина                          : 8 бит
Тип развёртки                            : Прогрессивная
Метод сжатия                             : С потерями
Бит/(Пиксели*Кадры)                      : 0.309
Размер потока                            : 1,75 Гбайт (80%)
Библиотека кодирования                   : XviD 65
Аудио
Идентификатор                            : 1
Формат                                   : AC-3
Формат/Информация                        : Audio Coding 3
Расширение режима                        : CM (complete main)
Параметр Endianness формата              : Big
Идентификатор кодека                     : 2000
Продолжительность                        : 2 ч. 35 м.
Вид битрейта                             : Постоянный
Битрейт                                  : 384 Кбит/сек
Каналы                                   : 6 каналов
Расположение каналов                     : Front: L C R, Side: L R, LFE
Частота                                  : 48,0 КГц
Битовая глубина                          : 16 бит
Метод сжатия                             : С потерями
Размер потока                            : 426 Мбайт (19%)
Выравнивание                             : Разделение по промежуткам
Продолжительность промежутка             : 42  мс. (1,00 видеокадр)
Время предзагрузки промежутка            : 500  мс.
Скриншоты:                Время раздачи: с 15:00 до 22:00 до 3-х сидеров
Вне форума [Профиль] [ЛС]
Показать сообщения:    
Ответить на тему

Текущее время: Сегодня 13:31

Часовой пояс: GMT + 3



Вы не можете начинать темы
Вы не можете отвечать на сообщения
Вы не можете редактировать свои сообщения
Вы не можете удалять свои сообщения
Вы не можете голосовать в опросах
Вы не можете прикреплять файлы к сообщениям
Вы не можете скачивать файлы