Сегодня идет свободное скачивание без начисления Download

Лаура / Laure (1976) DVDRip

Ответить на тему
 
Автор
Сообщение

UndegraundMen ®

Стаж: 3 года 9 месяцев

Сообщений: 28329

Торрент-статистика

Пост 02-Мар-2013 16:41

[Цитировать]

-Лаура / Laure (1976) DVDRip- Русское название: Лаура
Оригинальное название: Laure
Производство: Франция , Италия / A-Erre Cinematografica, Les Productions Fox Europa
Год выпуска: 1976
Жанр: Драма, Мелодрама
Описание фильма:
Фильм повествует о прикючениях Лауры, дочери священика, которая присоединяется к экспедиции на Филипины для изучения ритуала возрождения племени Мара. Вместо этого она изучает анатомию мужского и женского тела…
Режиссер: Роберто Д’Этторе Пьяццоли, Луи-Жак Ролле-Андриан
Актеры: Анни Бель, Эмманюэль Арсан, Пьер Одебур, Эл Клайвер, Орсо Мария Гуэррини, Мишель Штарк, Гомер Адамс, Бернардо Бернардо, Сильвио Симонелли, Франко Кури, Эндрю Дуглас, Берто Каселли, Марселла Эгиди, Катрин Дзаго, Жерар Ландри, Женевьева Джеральд, Мария Виктория Абад Круз, Бобби Дженсен, Эдди Хоакин, Лоррэйн Кригель
Продолжительность: 01:35:57
Перевод: Одноголосый закадровый
Автор перевода: Антон Алексеев

Дата мировой премьеры: 4 февраля 1976
Видеокодек: Xvid
Битрейт видео: ~1789 Кбит/сек
Размер кадра: 720x400
Качество видео: DVDRip
Аудио #1: AC3, 2ch, 192 Кбит/с, Русский
Аудио #2: AC3, 2ch, 192 Кбит/с, Английский

MediaInfo:

Общее
Полное имя : Laura.1976.DVDRip.avi
Формат : AVI
Формат/Информация : Audio Video Interleave
Размер файла : 1,47 Гбайт
Продолжительность : 1 ч. 35 м.
Общий поток : 2187 Кбит/сек
Программа кодирования : VirtualDubMod 1.5.10.2 (build 2540/release)
Библиотека кодирования : VirtualDubMod build 2540/release
Видео
Идентификатор : 0
Формат : MPEG-4 Visual
Профиль формата : Advanced [email protected]
Параметр BVOP формата : 2
Параметр QPel формата : Нет
Параметр GMC формата : Без точки перехода
Параметр матрицы формата : Выборочная
Идентификатор кодека : XVID
Идентификатор кодека/Подсказка : XviD
Продолжительность : 1 ч. 35 м.
Битрейт : 1789 Кбит/сек
Ширина : 720 пикселей
Высота : 400 пикселей
Соотношение сторон : 16:9
Частота кадров : 23,976 кадра/сек
Цветовое пространство : YUV
Субдискретизация насыщенности : 4:2:0
Битовая глубина : 8 бит
Тип развёртки : Прогрессивная
Метод сжатия : С потерями
Бит/(Пиксели*Кадры) : 0.259
Размер потока : 1,20 Гбайт (82%)
Библиотека кодирования : XviD 65
Аудио #1
Идентификатор : 1
Формат : AC-3
Формат/Информация : Audio Coding 3
Расширение режима : CM (complete main)
Параметр Endianness формата : Big
Идентификатор кодека : 2000
Продолжительность : 1 ч. 35 м.
Вид битрейта : Постоянный
Битрейт : 192 Кбит/сек
Каналы : 2 канала
Расположение каналов : Front: L R
Частота : 48,0 КГц
Битовая глубина : 16 бит
Метод сжатия : С потерями
Размер потока : 132 Мбайт (9%)
Выравнивание : Разделение по промежуткам
Продолжительность промежутка : 42 мс. (1,00 видеокадр)
Время предзагрузки промежутка : 500 мс.
Аудио #2
Идентификатор : 2
Формат : AC-3
Формат/Информация : Audio Coding 3
Расширение режима : CM (complete main)
Параметр Endianness формата : Big
Идентификатор кодека : 2000
Продолжительность : 1 ч. 35 м.
Вид битрейта : Постоянный
Битрейт : 192 Кбит/сек
Каналы : 2 канала
Расположение каналов : Front: L R
Частота : 48,0 КГц
Битовая глубина : 16 бит
Метод сжатия : С потерями
Размер потока : 132 Мбайт (9%)
Выравнивание : Разделение по промежуткам
Продолжительность промежутка : 42 мс. (1,00 видеокадр)
Время предзагрузки промежутка : 500 мс.

Рейтинг MPAA:

Рейтинг R - Детям до 17 лет обязательно присутствие родителей

Рейтинг R получают фильмы, в содержании которых обязательно содержится материал, предназначенный только для взрослой аудитории. Родителям рекомендуется хорошо подумать, прежде чем посмотреть такой фильм вместе со своими детьми.
Фильм, получивший рейтинг R, скорее всего содержит сексуальные сцены, эпизоды с употреблением наркотиков, нецензурную брань, фрагменты с насилием и т.д.
Скриншоты:
       
       

Рецензия, отзыв о фильме

Фильм - результат совместного итало-французского производства. Технически не является продолжением "Эммануэль", хотя играют те же актеры.
Время раздачи
с 8:00 до 02:00
Вне форума [Профиль] [ЛС]
Похожие темы
Форум Тема Автор Торрент Отв. Посл. сообщение
./templates/default/images/folder_dl.gif Видеотренинги Лаура Сильва | Сильва 360° (2011) HDRip Omen
1 | 0

0 | 37

12

2015-03-16 18:59
Omen Последнее
./templates/default/images/folder_dl.gif T Новинки (HD|DVD|BD|WEB|TV|SAT|PDTV|-Rip) День независимости: Возрождение / Independents' Day (Лаура Бет Лав) [2016, фантастика, WEB-DLRip, Любительский (многоголосый) [Parovoz Production] Region_13
1 | 0

4 | 933

53

2016-06-28 13:36
yurag Последнее
Показать сообщения:    
Ответить на тему

Текущее время: Сегодня 17:31

Часовой пояс: GMT + 3



Вы не можете начинать темы
Вы не можете отвечать на сообщения
Вы не можете редактировать свои сообщения
Вы не можете удалять свои сообщения
Вы не можете голосовать в опросах
Вы не можете прикреплять файлы к сообщениям
Вы не можете скачивать файлы