Сегодня идет свободное скачивание без начисления Download

Приключения Тиля Уленшпигеля / Les aventures de Till l\'Espiegle(1956)DVDRip

Ответить на тему
 
Автор
Сообщение

UndegraundMen ®

Стаж: 3 года 11 месяцев

Сообщений: 28331

Торрент-статистика

Пост 02-Мар-2013 16:41

[Цитировать]

- Приключения Тиля Уленшпигеля / Les aventures de Till l'Espiegle(1956)DVDRip- Русское название: Приключения Тиля Уленшпигеля
Оригинальное название: Les aventures de Till l'Espiegle
Год выпуска: 1956
Страна: Франция
Жанр: Комедия, приключения
Перевод: Любительский: (двухголосый, закадровый)
Субтитры: Русские
Продолжительность: 01:24:12
Описание фильма:
Образ Уленшпигеля — бродяги, плута и балагура — начал складываться в немецком и фламандском фольклоре в XIV в. Обилие анекдотов и шванков об Уленшпигеле сделало этот персонаж собирательным, подобно Ходже Насреддину. Если верить народной молве, Тиль — историческое лицо. Он якобы родился около 1300 г. в Кнайтлингене, много путешествовал по Германии, Бельгии и Нидерландам. Нидерландский кинорежиссер Йорис Ивенс совместно с Жераром Филипом снял фильм «Приключения Тиля Уленшпигеля». Роли Тиля и Ламме Гудзака исполнили соответственно Жерар Филип и Жан Карме.

Режиссер: Жерар Филип, Йорис Ивенс
Актеры:
Жерар Филип, Фернан Леду, Жан Карме, Жан Дебюкур, Вильгельм Кох-Хоге, Раймон Суплекс, Эльфрида Флорин, Габриэль Фонтан, Робер Порте, Анри Нассье, Роже Монто, Люсьен Калламан, Жаки Бланшо, Джо Давре, Мари-Бланш Вернь, Ив Брэнвиль, Анри Нассье, Вильгельм Кох-Хоге, Жорж Шамара, Анри Маршан, Анри Нассье, Александр Риньо, Роланд Пьетри, Рене Ворм

Видеокодек: XviD
Формат: AVI
Битрейт видео: ~1990 kbps
Размер кадра: 720x528
Качество видео: DVDRip
Аудио#1: Русский: 48 kHz, MPEG Layer 3, 2 ch, ~192.00 kbps avg. Любительский (двухголосый)
Аудио#2: Французский: 48 kHz, MPEG Layer 3, 2 ch, ~192.00 kbps avg (Оригинал)

MI

Общее
Полное имя : C:\Users\1\Downloads\Приключения Тиля Уленшпигеля\Приключения Тиля Уленшпигеля.avi
Формат : AVI
Формат/Информация : Audio Video Interleave
Размер файла : 1,41 Гбайт
Продолжительность : 1 ч. 24 м.
Общий поток : 2389 Кбит/сек
Программа кодирования : VirtualDubModRus 1.5.10.2 (build 2542/release)
Библиотека кодирования : VirtualDubMod build 2542/release
Видео
Идентификатор : 0
Формат : MPEG-4 Visual
Профиль формата : [email protected]
Параметр BVOP формата : Нет
Параметр QPel формата : Нет
Параметр GMC формата : Без точки перехода
Параметр матрицы формата : Default (H.263)
Идентификатор кодека : XVID
Идентификатор кодека/Подсказка : XviD
Продолжительность : 1 ч. 24 м.
Битрейт : 1990 Кбит/сек
Ширина : 720 пикселей
Высота : 528 пикселей
Соотношение сторон : 4:3
Частота кадров : 25,000 кадров/сек
Цветовое пространство : YUV
Субдискретизация насыщенности : 4:2:0
Битовая глубина : 8 бит
Тип развёртки : Прогрессивная
Метод сжатия : С потерями
Бит/(Пиксели*Кадры) : 0.209
Размер потока : 1,17 Гбайт (83%)
Библиотека кодирования : XviD 1.1.2 (UTC 2006-11-01)
Аудио #1
Идентификатор : 1
Формат : MPEG Audio
Версия формата : Version 1
Профиль формата : Layer 3
Режим : Joint stereo
Расширение режима : MS Stereo
Идентификатор кодека : 55
Идентификатор кодека/Подсказка : MP3
Продолжительность : 1 ч. 24 м.
Вид битрейта : Постоянный
Битрейт : 192 Кбит/сек
Каналы : 2 канала
Частота : 44,1 КГц
Метод сжатия : С потерями
Размер потока : 116 Мбайт (8%)
Выравнивание : Разделение по промежуткам
Продолжительность промежутка : 40 мс. (1,00 видеокадр)
Аудио #2
Идентификатор : 2
Формат : MPEG Audio
Версия формата : Version 1
Профиль формата : Layer 3
Режим : Joint stereo
Расширение режима : MS Stereo
Идентификатор кодека : 55
Идентификатор кодека/Подсказка : MP3
Продолжительность : 1 ч. 24 м.
Вид битрейта : Постоянный
Битрейт : 192 Кбит/сек
Каналы : 2 канала
Частота : 48,0 КГц
Метод сжатия : С потерями
Размер потока : 116 Мбайт (8%)
Выравнивание : Соединение по промежуткам
Продолжительность промежутка : 40 мс. (1,00 видеокадр)
Библиотека кодирования : LAME3.98 (alpha)
Скриншоты:
         
 
Вне форума [Профиль] [ЛС]
Похожие темы
Форум Тема Автор Торрент Отв. Посл. сообщение
./templates/default/images/folder_dl.gif Иностранные мультфильмы Смурфики / The Smurfs (Раджа Госнелл) [2011 г., мультфильм, фэнтези, комедия, приключения, семейный, DVDRip] sassad
1 | 0

0 | 824

20

2011-09-20 19:50
sassad Последнее
./templates/default/images/folder_dl.gif Мультфильмы в формате 3D Звёздные собаки: Белка и Стрелка в 3Д / 3D (Святослав Ушаков, Инна Евланникова) [2010, Мультфильм, Приключения, Комедия, BDrip-AVC] Half OverUnder / Вертикальная анаморфная стереопара zhuk.m
1 | 0

0 | 2355

24

2012-01-22 16:51
zhuk.m Последнее
./templates/default/images/folder_dl.gif Разножанровые коллекции книг и библиотеки Книжная серия | Библиотека приключений и научной фантастики (96 книг) [1936-2004] [DJVU, PDF] sashau
0 | 1

0 | 1116

6

2013-05-10 09:42
sashau Последнее
./templates/default/images/folder_dl.gif Иностранные мультфильмы ВАЛЛ·И / WALL·E (Эндрю Стэнтон / Andrew Stanton) [2008 г., США, мультфильм, фантастика, мелодрама, приключения, семейный, BDRip 1080p] Dub + MVO + AVO (Сербин) + Ukr + Original Eng + Sub (Rus, Ukr, Eng) [Локализованный видеоряд] Omen
2 | 0

0 | 534

6

2014-09-04 20:39
Omen Последнее
./templates/default/images/folder_dl.gif Зарубежное кино Геркулес в Нью-Йорке / Hercules in New York (Артур Аллан Сейдельман / Arthur Allan Seidelman) [1969, США, фэнтези, приключения, BDRip 720p] MVO + AVO (Юрий сербин) + Sub Rus, Eng + Original Eng Omen
2 | 0

1 | 155

1

2015-03-31 21:21
Dracula Последнее
./templates/default/images/folder_dl.gif Игры [Android] Earthworm Jim immortality 2.0 [Аркадный платформер, приключения, ENG] Omen
1 | 0

0 | 677

7

2015-04-11 03:00
Omen Последнее
./templates/default/images/folder_dl.gif Игры [Android] The Jungle Book v1.0 [Hack] [Аркадный платформер, приключения, ENG] Omen
1 | 0

0 | 750

8

2015-04-18 21:00
Omen Последнее
./templates/default/images/folder_dl.gif Игры [Android] Warlock v1.0 [Hack] [Аркадный хорор, приключения, ENG] Omen
1 | 0

0 | 542

5

2015-04-26 03:00
Omen Последнее
./templates/default/images/folder_dl.gif Обучающее видео Учебный центр 1C | Использование прикладного решения 1С Розница 8.2 Редакция 2 (2015) PCRec Varius
1 | 0

0 | 143

23

2015-07-16 05:16
Varius Последнее
./templates/default/images/folder_dl.gif Новинки (HD|DVD|BD|WEB|TV|SAT|PDTV|-Rip) Звёздные войны: Пробуждение силы / Star Wars: The Force Awakens (Джей Джей Абрамс) [2015 г., фантастика, фэнтези, боевик, приключения, BDRip 720p] DUB [Line] Theseus
1 | 0

0 | 495

34

2016-03-25 22:56
Theseus Последнее
Показать сообщения:    
Ответить на тему

Текущее время: Сегодня 05:16

Часовой пояс: GMT + 3



Вы не можете начинать темы
Вы не можете отвечать на сообщения
Вы не можете редактировать свои сообщения
Вы не можете удалять свои сообщения
Вы не можете голосовать в опросах
Вы не можете прикреплять файлы к сообщениям
Вы не можете скачивать файлы