Сегодня идет свободное скачивание без начисления Download

Гангстеры и филантропы / Gangsterzy i filantropi (1962)DVDRip [H.264]

Ответить на тему
 
Автор
Сообщение

UndegraundMen ®

Стаж: 3 года 9 месяцев

Сообщений: 28329

Торрент-статистика

Пост 02-Мар-2013 16:41

[Цитировать]

- Гангстеры и филантропы / Gangsterzy i filantropi (1962)DVDRip [H.264]- Русское название: Гангстеры и филантропы
Оригинальное название: Gangsterzy i filantropi
Год выпуска: 1962
Страна: Польша
Жанр: Драма, криминал, детектив
Перевод: Профессиональный: (полное дублирование)
Субтитры: Нет
Продолжительность: 01:21:15
Описание фильма:
Две сатирические новеллы с одинаковым финалом: и «гангстеры», и «филантропы» оказываются в зале суда. Первая история — о том, как был задумал план «идеального преступления», и как он был сорван. Ни идеальное алиби, ни удачное ограбление — это еще не гарантия успеха. Потому что с деньгами надо уметь уйти с места преступления… Вторая новелла — об оригинальном методе коренной перестройки системы общепита: Жизнь экс-химика Ковальского резко изменилась, когда в кафе его приняли за инспектора…

Режиссер: Ежи Хоффман
Актеры:
Густав Холоубек, Веслав Михниковский, Казимеж Опалиньский, Мирослав Майхровский, Войцех Раевский, Мечислав Павликовский, Ханка Белицка, Магда Целювна, Барбара Модельска

Видеокодек: MPEG4/ISO/AVC
Формат: mkv
Битрейт видео: ~2344 kbps
Размер кадра: [email protected]
Качество видео: DVDRip
Аудио#1:[b/] Русский: 48 kHz, АС3, 2 ch, Front: L R ~224.00 kbps avg Профессиональный (полное дублирование)

MI

Общее
Уникальный идентификатор : 195406147887231840335146952319944097968 (0x9301DAEB5443F2C38647C0B8A50C00B0)
Полное имя : C:\Users\1\Downloads\Gangsterzy.i.filantropi.mkv
Формат : Matroska
Версия формата : Version 2
Размер файла : 1,46 Гбайт
Продолжительность : 1 ч. 21 м.
Общий поток : 2570 Кбит/сек
Дата кодирования : UTC 2012-03-10 10:15:04
Программа кодирования : mkvmerge v2.9.8 ('C'est le bon') built on Aug 13 2009 12:49:06
Библиотека кодирования : libebml v0.7.7 + libmatroska v0.8.1
Видео
Идентификатор : 1
Формат : AVC
Формат/Информация : Advanced Video Codec
Профиль формата : [url=mailto:[email protected]][email protected][/url]
Параметр CABAC формата : Да
Параметр ReFrames формата : 10 кадров
Идентификатор кодека : V_MPEG4/ISO/AVC
Продолжительность : 1 ч. 21 м.
Битрейт : 2344 Кбит/сек
Ширина : 672 пикселя
Высота : 560 пикселей
Соотношение сторон : 1,279
Соотношение сторон в оригинале : 1,280
Частота кадров : 25,000 кадров/сек
Цветовое пространство : YUV
Субдискретизация насыщенности : 4:2:0
Битовая глубина : 8 бит
Тип развёртки : Прогрессивная
Бит/(Пиксели*Кадры) : 0.249
Размер потока : 1,30 Гбайт (89%)
Библиотека кодирования : x264 core 120 r2164 da19765
Настройки программы : cabac=1 / ref=10 / deblock=1:-2:-1 / analyse=0x3:0x133 / me=umh / subme=9 / psy=1 / psy_rd=1.00:0.15 / mixed_ref=1 / me_range=32 / chroma_me=1 / trellis=2 / 8x8dct=1 / cqm=0 / deadzone=21,11 / fast_pskip=1 / chroma_qp_offset=-3 / threads=3 / sliced_threads=0 / nr=0 / decimate=0 / interlaced=0 / bluray_compat=0 / constrained_intra=0 / bframes=8 / b_pyramid=2 / b_adapt=2 / b_bias=0 / direct=3 / weightb=1 / open_gop=0 / weightp=2 / keyint=250 / keyint_min=25 / scenecut=40 / intra_refresh=0 / rc_lookahead=50 / rc=2pass / mbtree=1 / bitrate=2344 / ratetol=1.0 / qcomp=0.60 / qpmin=0 / qpmax=51 / qpstep=4 / cplxblur=20.0 / qblur=0.5 / ip_ratio=1.40 / aq=1:0.90
Язык : English
Default : Нет
Forced : Нет
Аудио
Идентификатор : 2
Формат : AC-3
Формат/Информация : Audio Coding 3
Расширение режима : CM (complete main)
Идентификатор кодека : A_AC3
Продолжительность : 1 ч. 21 м.
Вид битрейта : Постоянный
Битрейт : 224 Кбит/сек
Каналы : 2 канала
Расположение каналов : Front: L R
Частота : 48,0 КГц
Битовая глубина : 16 бит
Метод сжатия : С потерями
Размер потока : 130 Мбайт (9%)
Заголовок : AC3 2ch @ 224 kbps
Язык : Russian
Default : Да
Forced : Нет
Меню
00:00:00.000 : 00:00:00.000
00:06:20.240 : 00:06:20.240
00:12:19.240 : 00:12:19.240
00:16:54.160 : 00:16:54.160
00:22:32.200 : 00:22:32.200
00:27:49.920 : 00:27:49.920
00:34:27.040 : 00:34:27.040
00:40:06.440 : 00:40:06.440
00:49:49.800 : 00:49:49.800
00:57:28.600 : 00:57:28.600
01:03:43.680 : 01:03:43.680
01:13:19.520 : 01:13:19.520
01:21:14.280 : 01:21:14.280
Скриншоты:
     
     
Вне форума [Профиль] [ЛС]
Показать сообщения:    
Ответить на тему

Текущее время: Сегодня 22:18

Часовой пояс: GMT + 3



Вы не можете начинать темы
Вы не можете отвечать на сообщения
Вы не можете редактировать свои сообщения
Вы не можете удалять свои сообщения
Вы не можете голосовать в опросах
Вы не можете прикреплять файлы к сообщениям
Вы не можете скачивать файлы