Сегодня идет свободное скачивание без начисления Download

Тянуть дьявола за хвост / Le diable par la queue (1969)DVDRip

Ответить на тему
 
Автор
Сообщение

UndegraundMen ®

Стаж: 3 года 9 месяцев

Сообщений: 28329

Торрент-статистика

Пост 02-Мар-2013 16:41

[Цитировать]

-Тянуть дьявола за хвост / Le diable par la queue (1969)DVDRip- Русское название: Тянуть дьявола за хвост
Оригинальное название: Le diable par la queue
Год выпуска: 1969
Страна: Франция, Италия
Жанр: Комедия
Перевод: Профессиональный: (двухголосый, закадровый)
Субтитры: Нет
Продолжительность: 01:30:44
Описание фильма:
У семьи аристократов нет средств на содержание своей гостиницы - фамильного замка XVII века. Всего один постоялец не приносит большого дохода. Чтобы хоть как-то поправить свое положение, хозяева просят местного автотехника портить автомобили, которые останавливаются на заправке. В замке сразу появляется множество жильцов, от обычных туристов до грабителей банков...
Прекрасные актеры в великолепной комедии.

Режиссер: Филипп де Брока
Актеры:
Ив Монтан, Мадлен Рено, Мария Шелл, Жан Рошфор, Жан-Пьер Марьель, Клотильда Жоано, Клод Пьеплю, Таня Лопер, Марта Келлер, Ксавье Желен

Видеокодек: XviD
Формат: AVI
Битрейт видео: ~2023 kbps
Размер кадра: 720x448
Качество видео: DVDRip
Аудио#1: Русский: 48 kHz, АС3, 2 ch, Front: L R ~192.00 kbps avg Профессиональный (двухголосый, закадровый)
Аудио#2: Французский: 48 kHz, MPEG Layer 3, 2 ch, ~128.00 kbps avg (Оригинал)

MI

Общее
Полное имя : C:\Users\1\Downloads\Le.Diable.Par.La.Queue.avi
Формат : AVI
Формат/Информация : Audio Video Interleave
Размер файла : 1,49 Гбайт
Продолжительность : 1 ч. 30 м.
Общий поток : 2358 Кбит/сек
Режиссёр : Ultam, grafd
Программа кодирования : VirtualDubMod 1.5.10.2 (build 2542/release)
Библиотека кодирования : VirtualDubMod build 2542/release
Примечание : fenixclub.com
Видео
Идентификатор : 0
Формат : MPEG-4 Visual
Профиль формата : Advanced [email protected]
Параметр BVOP формата : 2
Параметр QPel формата : Нет
Параметр GMC формата : Без точки перехода
Параметр матрицы формата : Default (H.263)
Режим смешивания : Сжатый битовый поток
Идентификатор кодека : XVID
Идентификатор кодека/Подсказка : XviD
Продолжительность : 1 ч. 30 м.
Битрейт : 2024 Кбит/сек
Ширина : 720 пикселей
Высота : 448 пикселей
Соотношение сторон : 1,607
Частота кадров : 25,000 кадров/сек
Цветовое пространство : YUV
Субдискретизация насыщенности : 4:2:0
Битовая глубина : 8 бит
Тип развёртки : Прогрессивная
Метод сжатия : С потерями
Бит/(Пиксели*Кадры) : 0.251
Размер потока : 1,28 Гбайт (86%)
Библиотека кодирования : XviD 64
Аудио #1
Идентификатор : 1
Формат : MPEG Audio
Версия формата : Version 1
Профиль формата : Layer 3
Идентификатор кодека : 55
Идентификатор кодека/Подсказка : MP3
Продолжительность : 1 ч. 30 м.
Вид битрейта : Постоянный
Битрейт : 192 Кбит/сек
Каналы : 2 канала
Частота : 48,0 КГц
Метод сжатия : С потерями
Размер потока : 125 Мбайт (8%)
Выравнивание : Соединение по промежуткам
Продолжительность промежутка : 40 мс. (1,00 видеокадр)
Время предзагрузки промежутка : 504 мс.
Заголовок : ru
Библиотека кодирования : LAME3.98.4UUUЛuЫkt¶
Аудио #2
Идентификатор : 2
Формат : MPEG Audio
Версия формата : Version 1
Профиль формата : Layer 3
Идентификатор кодека : 55
Идентификатор кодека/Подсказка : MP3
Продолжительность : 1 ч. 30 м.
Вид битрейта : Постоянный
Битрейт : 128 Кбит/сек
Каналы : 2 канала
Частота : 48,0 КГц
Метод сжатия : С потерями
Задержка видео : 576 мс.
Размер потока : 83,1 Мбайт (5%)
Выравнивание : Разделение по промежуткам
Продолжительность промежутка : 40 мс. (1,00 видеокадр)
Время предзагрузки промежутка : 504 мс.
Заголовок : fr
Библиотека кодирования : LAME3.98.4
Скриншоты:
       
Вне форума [Профиль] [ЛС]
Показать сообщения:    
Ответить на тему

Текущее время: Сегодня 08:55

Часовой пояс: GMT + 3



Вы не можете начинать темы
Вы не можете отвечать на сообщения
Вы не можете редактировать свои сообщения
Вы не можете удалять свои сообщения
Вы не можете голосовать в опросах
Вы не можете прикреплять файлы к сообщениям
Вы не можете скачивать файлы