Сегодня идет свободное скачивание без начисления Download

Аэропорт / Airport (1970)HDRip

Ответить на тему
 
Автор
Сообщение

UndegraundMen ®

Стаж: 3 года 9 месяцев

Сообщений: 28329

Торрент-статистика

Пост 02-Мар-2013 16:41

[Цитировать]

-Аэропорт / Airport (1970)HDRip- Русское название: Аэропорт
Оригинальное название: Airport
Год выпуска: 1970
Страна: США, Universal Pictures
Жанр: Драма, Триллер, Катастрофа
Перевод: Профессиональный (многоголосый, закадровый
Субтитры: Русские, английские (отключаемые)
Продолжительность: 02:16:34
Описание фильма:
Во всех деталях об одной бурной ночи в аэропорту. В основу сюжета положена угроза взрыва самолета в воздухе отчаявшимся неудачником, желающим, чтобы семья получила крупную страховку после его гибели. Впервые так реально и живо был показан внутренний мир аэропорта в критической ситуации. Точно подмеченные бытовые и профессиональные детали создают впечатление документальности событий.
Режиссер: Берт Ланкастер / Burt Lancaster
Актеры:
Берт Ланкастер /Burt Lancaster/, Дин Мартин /Dean Martin/, Джордж Кеннеди /George Kennedy/, Хелен Хэйес /Helen Hayes/, Джин Сиберг /Jean Severg/, Жаклин Биссет /Jacqueline Bisset/, Ван Хелфин /Van Helfin/, Морин Стэплтон /Maureen Stapleton/, Бэрри Нелсон /Barry Nelson/, Дэна Уинтер /Dana Wynter/, Ллойд Нолан /Lloyd Nolan/, Барбара Хэйл /Barbara Hale/, Гэри Коллинз /Gary Collins/

Видеокодек: XviD
Битрейт видео:~1834 kbps
Размер кадра: 720x304
Качество видео: HDRip
Аудио 1: Русский: 48 kHz, АС3, 6 ch, ~448.00 kbps (Профессиональный, многоголосый, закадровый)
Аудио 2: Английский: 48 kHz, АС3, 6 ch, ~448.00 kbps (Оригинал)(отдельным файлом)

MI

Общее
Полное имя : C:\Users\1\Downloads\Ajeroport.1970\Ajeroport.1970.XviD.HDRip.avi
Формат : AVI
Формат/Информация : Audio Video Interleave
Профиль формата : OpenDML
Размер файла : 2,19 Гбайт
Продолжительность : 2 ч. 16 м.
Общий поток : 2293 Кбит/сек
Название фильма : Ajeroport.1970.XviD.HDRip.avi
Режиссёр : NovaLan_alek7120
Программа кодирования : VirtualDubMod 1.5.10.2 (build 2540/release)
Правообладатель : [url=http://]http://[/url]спам
Видео
Идентификатор : 0
Формат : MPEG-4 Visual
Профиль формата : Advanced [email protected]
Параметр BVOP формата : 1
Параметр QPel формата : Нет
Параметр GMC формата : Без точки перехода
Параметр матрицы формата : Default (MPEG)
Идентификатор кодека : XVID
Идентификатор кодека/Подсказка : XviD
Продолжительность : 2 ч. 16 м.
Битрейт : 1834 Кбит/сек
Ширина : 720 пикселей
Высота : 304 пикселя
Соотношение сторон : 2,35:1
Частота кадров : 23,976 кадра/сек
Цветовое пространство : YUV
Субдискретизация насыщенности : 4:2:0
Битовая глубина : 8 бит
Тип развёртки : Прогрессивная
Метод сжатия : С потерями
Бит/(Пиксели*Кадры) : 0.349
Размер потока : 1,75 Гбайт (80%)
Библиотека кодирования : XviD 1.2.1 (UTC 2008-12-04)
Аудио 1
Идентификатор : 1
Формат : AC-3
Формат/Информация : Audio Coding 3
Расширение режима : CM (complete main)
Идентификатор кодека : 2000
Продолжительность : 2 ч. 16 м.
Вид битрейта : Постоянный
Битрейт : 448 Кбит/сек
Каналы : 6 каналов
Расположение каналов : Front: L C R, Side: L R, LFE
Частота : 48,0 КГц
Битовая глубина : 16 бит
Метод сжатия : С потерями
Размер потока : 438 Мбайт (20%)
Выравнивание : Разделение по промежуткам
Продолжительность промежутка : 42 мс. (1,00 видеокадр)
Время предзагрузки промежутка : 500 мс.(Русский)
Аудио 2
Общее
Полное имя : C:\Users\1\Downloads\Ajeroport.1970\Ajeroport.1970.XviD.HDRip.ac3
Формат : AC-3
Формат/Информация : Audio Coding 3
Расширение режима : CM (complete main)
Продолжительность : 2 ч. 16 м.
Вид битрейта : Постоянный
Битрейт : 448 Кбит/сек
Каналы : 6 каналов
Расположение каналов : Front: L C R, Side: L R, LFE
Частота : 48,0 КГц
Битовая глубина : 16 бит
Метод сжатия : С потерями
Размер потока : 438 Мбайт (100%)
(Английский)
Общее
Полное имя : C:\Users\1\Downloads\Ajeroport.1970\Ajeroport.1970.XviD.HDRip.ENG.srt
Размер файла : 173 Кбайт
Общее
Полное имя : C:\Users\1\Downloads\Ajeroport.1970\Ajeroport.1970.XviD.HDRip.RUS.srt
Размер файла : 192 Кбайт
Скриншоты:
     
     

Доп. информация

Этот фильм, созданный по бестселлеру Артура Хейли, занял одно из первых мест среди картин 60-х годов по количеству зрителей. Эта экранизация послужила прототипом для последующих фильмов-авиакатастроф во многих странах мира.
Благодаря ему в Советском Союзе был снят фильм «Экипаж» Александра Митты.
Награды:
ОСКАР '1971
Победитель в категориях:
– Лучший фильм: Джордж Ситон
– Лучшая актриса второго плана: Хелен Хэйес
– Лучшая операторская работа: Эрнест Лазло
– Лучший сценарист (адаптация): Джордж Ситон
Вне форума [Профиль] [ЛС]
Показать сообщения:    
Ответить на тему

Текущее время: Сегодня 10:55

Часовой пояс: GMT + 3



Вы не можете начинать темы
Вы не можете отвечать на сообщения
Вы не можете редактировать свои сообщения
Вы не можете удалять свои сообщения
Вы не можете голосовать в опросах
Вы не можете прикреплять файлы к сообщениям
Вы не можете скачивать файлы