Сегодня идет свободное скачивание без начисления Download

Вилли Вонка и шоколадная фабрика / Willy Wonka & the Chocolate Factory (1971) HDRip [H.264]

Ответить на тему
 
Автор
Сообщение

UndegraundMen ®

Стаж: 3 года 9 месяцев

Сообщений: 28329

Торрент-статистика

Пост 02-Мар-2013 16:42

[Цитировать]

-Вилли Вонка и шоколадная фабрика / Willy Wonka & the Chocolate Factory (1971) HDRip- Русское название: Вилли Вонка и шоколадная фабрика
Оригинальное название: Willy Wonka & the Chocolate Factory
Год выпуска: 1971
Жанр: Фэнтези, Семейный, Мьюзикл
Описание фильма:
Эксцентричный кондитер Вилли Вонк способен осуществить мечты любого ребенка. В качестве коммерческого приема он спрятал пять золотых билетов в шоколадные батончики и решил испытать честность победителей. Но во время тура по стране лакомств необходимо соблюдать твердые правила, иначе не будет самой главной награды — пожизненного обеспечения шоколадом Вилли Вонка.
Режиссер: Мэл Стюарт
Актеры: Джин Уайлдер, Джек Альбертсон, Питер Острум, Пэрис Теммен, Рой Киннер, Джули Доун Коул, Леонард Стоун
Продолжительность: 01:39:44
Перевод: Многоголосый закадровый

Видеокодек: MPEG-4 AVC/H.264
Битрейт видео: ~5635 kb/s
Размер кадра: 1280 x 720
Качество видео: HDRip
Звук:
Аудио #1: Русский (AC-3, 6ch, 48kHz, 384 kb/s)

MediaInfo:

Код:
D:\Раздачи\Willy Wonka & The Chocolate Factory.mkv
  General
    Format : Matroska
    Format version : Version 1
    File size : 4.20 GiB
    Duration : 1h 39mn
    Overall bit rate : 6 022 Kbps
    Encoded date : UTC 2007-09-02 07:15:00
    Writing application : mkvmerge v2.0.2 ('You're My Flame') built on Feb 22 2007 00:05:35
    Writing library : libebml v0.7.7 + libmatroska v0.8.1
  Video #1
    ID : 1
    Format : AVC
    Format/Info : Advanced Video Codec
    Format profile : [url=mailto:[email protected]][email protected][/url]
    Format settings, CABAC : Yes
    Format settings, ReFrames : 9 frames
    Codec ID : V_MPEG4/ISO/AVC
    Duration : 1h 39mn
    Bit rate : 5 635 Kbps
    Width : 1 280 pixels
    Height : 720 pixels
    Display aspect ratio : 16:9
    Frame rate : 23.976 fps
    Color space : YUV
    Chroma subsampling : 4:2:0
    Bit depth : 8 bits
    Scan type : Progressive
    Bits/(Pixel*Frame) : 0.255
    Stream size : 3.84 GiB (92%)
    Writing library : x264 core 56 svn-667C
    Encoding settings : cabac=1 / ref=6 / deblock=1:-3:-3 / analyse=0x3:0x133 / me=umh / subme=7 / brdo=1 / mixed_ref=1 / me_range=16 / chroma_me=1 / trellis=1 / 8x8dct=1 / cqm=2 / deadzone=21,11 / chroma_qp_offset=0 / threads=2 / nr=0 / decimate=0 / mbaff=0 / bframes=3 / b_pyramid=1 / b_adapt=1 / b_bias=0 / direct=3 / wpredb=1 / bime=1 / keyint=250 / keyint_min=25 / scenecut=40(pre) / rc=2pass / bitrate=5635 / ratetol=1.0 / rceq='blurCplx^(1-qComp)' / qcomp=0.60 / qpmin=10 / qpmax=51 / qpstep=4 / cplxblur=20.0 / qblur=0.5 / ip_ratio=1.40 / pb_ratio=1.30
    Language : English
    Default : Yes
    Forced : No
  Audio #2
    ID : 2
    Format : AC-3
    Format/Info : Audio Coding 3
    Mode extension : CM (complete main)
    Format settings, Endianness : Big
    Codec ID : A_AC3
    Duration : 1h 39mn
    Bit rate mode : Constant
    Bit rate : 384 Kbps
    Channel(s) : 6 channels
    Channel positions : Front: L C R, Side: L R, LFE
    Sampling rate : 48.0 KHz
    Bit depth : 16 bits
    Compression mode : Lossy
    Stream size : 274 MiB (6%)
    Language : Russian
    Default : Yes
    Forced : No
Скриншоты:
         Время раздачи: с 18:00 до 23:00
Вне форума [Профиль] [ЛС]
Показать сообщения:    
Ответить на тему

Текущее время: Сегодня 22:19

Часовой пояс: GMT + 3



Вы не можете начинать темы
Вы не можете отвечать на сообщения
Вы не можете редактировать свои сообщения
Вы не можете удалять свои сообщения
Вы не можете голосовать в опросах
Вы не можете прикреплять файлы к сообщениям
Вы не можете скачивать файлы