Сегодня идет свободное скачивание без начисления Download

Приготовьте ваши носовые платки / Preparez vos mouchoirs / Get Out Your Handkerchiefs (1978) DVDRip

Ответить на тему
 
Автор
Сообщение

UndegraundMen ®

Стаж: 3 года 9 месяцев

Сообщений: 28329

Торрент-статистика

Пост 02-Мар-2013 16:42

[Цитировать]

-Приготовьте ваши носовые платки / Preparez vos mouchoirs / Get Out Your Handkerchiefs (1978) DVDRip- Русское название: Приготовьте ваши носовые платки
Оригинальное название: Preparez vos mouchoirs / Get Out Your Handkerchiefs
Год выпуска: 1978
Жанр: Комедия, Мелодрама
Награды:
Оскар, 1979 год, Победитель : Лучший фильм на иностранном языке — «Франция»
Золотой глобус, 1979 год, Номинации : Лучший иностранный фильм — «Франция»
Сезар, 1979 год, Победитель : Лучший саундтрек
Описание фильма:
Рауль влюблен в свою жену, но ее столь редкое достижение совершенно не трогает. Соланж физически здорова, но непробиваемо бесчувственна, а уж о том, чтобы забеременеть и речи быть не может. Она только и делает, что вяжет, в буквальном смысле обволакивая мир вокруг себя вялыми, но цепкими путами. Незадачливая пара знакомится в ресторане с учителем физкультуры Стефаном – ему-то Рауль и попытается навязать свою жену в любовницы, чтобы разбудить ее спящие чувства. Но вместо этого она так же отрешенно влюбляется в нового «друга семьи», а потом на удивление страстно крутит роман с тринадцатилетним подростком в летнем лагере, где Стефан подрабатывает тренером…
Одна из лучших черных комедий Бертрана Блие почти лишена постельных сцен – зритель исследует мотивы удивительного поведения героев и на глупости не отвлекается.
Режиссер: Бертран Блие
Актеры: Жерар Депардье, Патрик Деваэр, Кароль Лор, Мишель Серро, Лилиан Ровер, Ритон, Элеонор Херт, Мишель Бон, Жан Ружери, Сильви Жоли
Продолжительность: 01:44:15
Перевод: Двуголосый закадровый
Язык субтитров: Русские
Вид субтитров: Отдельным файлом

Видеокодек: Xvid
Битрейт видео: ~1585 kbps
Размер кадра: 656х400
Качество видео: DVDRip
Аудиокодек и битрейт:
Русский - AC3 2.0, 192 kbps
Французский - AC3 2.0, 192 kbps

MediaInfo

Код:
Общее
Полное имя                               : Приготовьте носовые платки\Preparez_vos_mouchoirs_1978.avi
Формат                                   : AVI
Формат/Информация                        : Audio Video Interleave
Размер файла                             : 1,44 Гбайт
Продолжительность                        : 1 ч. 44 м.
Общий поток                              : 1984 Кбит/сек
Программа кодирования                    : VirtualDubMod 1.5.10.2 (build 2540/release)
Библиотека кодирования                   : VirtualDubMod build 2540/release
Видео
Идентификатор                            : 0
Формат                                   : MPEG-4 Visual
Профиль формата                          : Advanced [email protected]
Параметр BVOP формата                    : 2
Параметр QPel формата                    : Нет
Параметр GMC формата                     : Без точки перехода
Параметр матрицы формата                 : Default (MPEG)
Идентификатор кодека                     : XVID
Идентификатор кодека/Подсказка           : XviD
Продолжительность                        : 1 ч. 44 м.
Битрейт                                  : 1585 Кбит/сек
Ширина                                   : 656 пикселей
Высота                                   : 400 пикселей
Соотношение сторон                       : 1,640
Частота кадров                           : 25,000 кадров/сек
Цветовое пространство                    : YUV
Субдискретизация насыщенности            : 4:2:0
Битовая глубина                          : 8 бит
Тип развёртки                            : Прогрессивная
Метод сжатия                             : С потерями
Бит/(Пиксели*Кадры)                      : 0.242
Размер потока                            : 1,15 Гбайт (80%)
Библиотека кодирования                   : XviD 1.2.1 (UTC 2008-12-04)
Аудио #1
Идентификатор                            : 1
Формат                                   : AC-3
Формат/Информация                        : Audio Coding 3
Расширение режима                        : CM (complete main)
Параметр Endianness формата              : Big
Идентификатор кодека                     : 2000
Продолжительность                        : 1 ч. 44 м.
Вид битрейта                             : Постоянный
Битрейт                                  : 192 Кбит/сек
Каналы                                   : 2 канала
Расположение каналов                     : Front: L R
Частота                                  : 48,0 КГц
Битовая глубина                          : 16 бит
Метод сжатия                             : С потерями
Размер потока                            : 143 Мбайт (10%)
Выравнивание                             : Разделение по промежуткам
Продолжительность промежутка             : 40  мс. (1,00 видеокадр)
Время предзагрузки промежутка            : 500  мс.
Аудио #2
Идентификатор                            : 2
Формат                                   : AC-3
Формат/Информация                        : Audio Coding 3
Расширение режима                        : CM (complete main)
Параметр Endianness формата              : Big
Идентификатор кодека                     : 2000
Продолжительность                        : 1 ч. 44 м.
Вид битрейта                             : Постоянный
Битрейт                                  : 192 Кбит/сек
Каналы                                   : 2 канала
Расположение каналов                     : Front: L R
Частота                                  : 48,0 КГц
Битовая глубина                          : 16 бит
Метод сжатия                             : С потерями
Размер потока                            : 143 Мбайт (10%)
Выравнивание                             : Разделение по промежуткам
Продолжительность промежутка             : 40  мс. (1,00 видеокадр)
Время предзагрузки промежутка            : 500  мс.
Скриншоты:          Время раздачи: C 8:00 до 23:00 мск. До первых пяти скачавших.
Вне форума [Профиль] [ЛС]
Похожие темы
Форум Тема Автор Торрент Отв. Посл. сообщение
./templates/default/images/folder_dl.gif Зарубежное кино Смертный приговор / Death Sentence (Джеймс Ван / James Wan) [2007, США, боевик, триллер, драма, BDRip 720p] MVO (Киномания) + DVO (П.Гланц и И.Королева) + AVO (Немахов) + VO (Яроцкий) + Original Eng + subs (Rus, Eng) Omen
1 | 0

0 | 593

8

2015-02-27 21:00
Omen Последнее
Показать сообщения:    
Ответить на тему

Текущее время: Сегодня 15:08

Часовой пояс: GMT + 3



Вы не можете начинать темы
Вы не можете отвечать на сообщения
Вы не можете редактировать свои сообщения
Вы не можете удалять свои сообщения
Вы не можете голосовать в опросах
Вы не можете прикреплять файлы к сообщениям
Вы не можете скачивать файлы