Сегодня идет свободное скачивание без начисления Download

Маленький купальщик / Le Petit baigneur (1968) [1080p] HDTV

Ответить на тему
 
Автор
Сообщение

UndegraundMen ®

Стаж: 3 года 9 месяцев

Сообщений: 28329

Торрент-статистика

Пост 02-Мар-2013 16:58

[Цитировать]

- Маленький купальщик / Le Petit baigneur (1968) [1080p] HDTV
- - Название: Маленький купальщик
Оригинальное название: Le Petit baigneur
Год выпуска: 1968
Жанр: Комедия
Выпущено: Франция, Италия, Fono Roma, Les Films Copernic, Les Films Corona, Selenia Cinematografica
Описание фильма:
Крупный судостроительный магнат Луис-Филипп Форшом опрометчиво выгоняет своего ведущего конструктора Кастанье после того, как один из его кораблей тонет прямо во время церемонии спуска. Однако скоро Форшом узнает, что яхта, спроектированная Кастанье, выиграла престижную регату в Сан-Ремо. Форшом бросается на поиски своего бывшего служащего, заваленного теперь предложениями от конкурентов, чтобы вернуть его любыми средствами...
Режиссер: Робер Дери
В ролях: Луи де Фюнес, Андреа Паризи, Франко Фабрици, Мишель Александр, Николь Вервиль, Робер Роллис, Жорж Аде, Филипп Дюма, Жерар Кальви, Роже Качча, Элен Дьедонне, Пьер Торнад, Пьер Дак, Анри Жене, Жак Легра, Мишель Галабрю, Колетт Броссе, Робер Дери
Продолжительность: 01:28:58
Перевод: Дублированный
Субтитры: нет

Рейтинг MPAA: PG 13– лицам до 13 лет обязательное присутствие родителей!!!
Дата мировой премьеры: 22 марта 1968
Видеокодек: MPEG-4 AVC
Битрейт видео: ~ 6423 Кбит/с
Размер кадра: 1920х1080
Качество видео: HDTV
Аудио:
1. Dolby Digital Русский 2.0 / 48 kHz / 224 kbps (Дублированный, Мосфильм)
2. Dolby Digital Французский 2.0 / 48 kHz / 224 kbps

MediaInfo

Общее
Уникальный идентификатор : 181968886484029947150052119575586469563 (0x88E5EEC838BC4006A058D1A05024F6BB)
Полное имя : D:\ Le.petit.baigneur.1968.1080p.HDTV.Rus.Fre.HDclub.mkv
Формат : Matroska
Версия формата : Version 4 / Version 2
Размер файла : 4,36 Гбайт
Продолжительность : 1 ч. 28 м.
Общий поток : 7010 Кбит/сек
Дата кодирования : UTC 2013-02-23 18:18:56
Программа кодирования : mkvmerge v6.0.0 ('Coming Up For Air') built on Jan 20 2013 09:52:00
Библиотека кодирования : libebml v1.3.0 + libmatroska v1.4.0
Видео
Идентификатор : 1
Формат : AVC
Формат/Информация : Advanced Video Codec
Профиль формата : [url=mailto:[email protected]][email protected][/url]
Параметр CABAC формата : Да
Параметр ReFrames формата : 4 кадра
Режим смешивания : Container [email protected]
Идентификатор кодека : V_MPEG4/ISO/AVC
Продолжительность : 1 ч. 28 м.
Битрейт : 6423 Кбит/сек
Ширина : 1920 пикселей
Высота : 1080 пикселей
Соотношение сторон : 16:9
Режим частоты кадров : Постоянный
Частота кадров : 25,000 кадров/сек
Цветовое пространство : YUV
Субдискретизация насыщенности : 4:2:0
Битовая глубина : 8 бит
Тип развёртки : MBAFF
Бит/(Пиксели*Кадры) : 0.124
Размер потока : 3,99 Гбайт (92%)
Default : Нет
Forced : Нет
Основные цвета : BT.709
Характеристики трансфера : BT.709
Коэффициенты матрицы : BT.709
Аудио #1
Идентификатор : 2
Формат : AC-3
Формат/Информация : Audio Coding 3
Расширение режима : CM (complete main)
Параметр Endianness формата : Big
Идентификатор кодека : A_AC3
Продолжительность : 1 ч. 28 м.
Вид битрейта : Постоянный
Битрейт : 224 Кбит/сек
Каналы : 2 канала
Расположение каналов : Front: L R
Частота : 48,0 КГц
Битовая глубина : 16 бит
Метод сжатия : С потерями
Размер потока : 143 Мбайт (3%)
Заголовок : AC3 2 ch 224 kbps Dub UssR Мосфильм
Язык : Russian
Default : Да
Forced : Нет
Аудио #2
Идентификатор : 3
Формат : AC-3
Формат/Информация : Audio Coding 3
Расширение режима : CM (complete main)
Параметр Endianness формата : Big
Идентификатор кодека : A_AC3
Продолжительность : 1 ч. 28 м.
Вид битрейта : Постоянный
Битрейт : 224 Кбит/сек
Каналы : 2 канала
Расположение каналов : Front: L R
Частота : 48,0 КГц
Битовая глубина : 16 бит
Метод сжатия : С потерями
Размер потока : 143 Мбайт (3%)
Заголовок : AC3 2 ch 224 kbps
Язык : French
Default : Нет
Forced : Нет
Скриншоты:
-Раздача: 24/7-Не забываем говорить спасибо, Вам не сложно, а мне приятно)))
Прошу с раздачи не уходить! Скачал сам, дай и другим скачать!!!
Приятного просмотра)))
Вне форума [Профиль] [ЛС]
Показать сообщения:    
Ответить на тему

Текущее время: Сегодня 14:55

Часовой пояс: GMT + 3



Вы не можете начинать темы
Вы не можете отвечать на сообщения
Вы не можете редактировать свои сообщения
Вы не можете удалять свои сообщения
Вы не можете голосовать в опросах
Вы не можете прикреплять файлы к сообщениям
Вы не можете скачивать файлы