Сегодня идет свободное скачивание без начисления Download

Список Шиндлера / Schindler\'s List (1993) BDRip [720p]

Ответить на тему
 
Автор
Сообщение

UndegraundMen ®

Стаж: 3 года 9 месяцев

Сообщений: 28329

Торрент-статистика

Пост 02-Мар-2013 21:14

[Цитировать]

-Список Шиндлера / Schindler's List (1993) BDRip [720p]- Русское название: Список Шиндлера
Оригинальное название: Schindler's List
Год выпуска: 1993
Жанр: Драма, Военный
Описание фильма:
Лента рассказывает реальную историю загадочного Оскара Шиндлера, члена нацистской партии, преуспевающего фабриканта, спасшего во время Второй мировой войны более тысячи ста евреев. Это триумф одного человека, не похожего на других, и драма тех, кто, благодаря ему, выжил в ужасный период человеческой истории.
Режиссер: Стивен Спилберг
Актеры: Лиам Нисон, Бен Кингсли, Рэйф Файнс, Кэролайн Гудолл, Эмбет Дэвидц, Джонатан Сагалл, Малгоша Гебель, Шмуэль Леви, Марк Иванир, Беатриче Макола
Продолжительность: 03:15:12
Перевод: Дублированный,многоголосый,авторский,многоголосый украинский
Язык субтитров: русские, английские
Вид субтитров: Вшитые
Навигация по главам: есть

Видеокодек: MPEG-4 AVC/H.264
Битрейт видео: ~5500 Кбит/сек
Размер кадра: 1280 x 694
Качество видео: BDRip 720p
Аудио:
1: 48 kHz, DTS, 2.0 ,1 509.00 kbps avg - профессиональный (дублированный) -Русский
2: 48 kHz, AC3, 3/2 (L,C,R,l,r) + LFE ch, 448.00 kbps avg - Многоголосый (закадровый)-Русский
3: 48 kHz, DTS, 3/2 (L,C,R,l,r) + LFE ch, 768.00 kbps avg - Авторский (Ю.Живов) -Русский
4: 48 kHz, AC3, 2.0 192.00 kbps avg - Многоголосый (закадровый) -Украинский
5: 48 kHz, DTS, 3/2 (L,C,R,l,r) + LFE ch, ~1 509.00 kbps avg - оригинал -Английский
Сэмпл: Ссылка

BDInfo

Уникальный идентификатор : 200730877705151230841240989441929132948 (0x97035C5E46D5E199BAF370FBEB123B94)
Полное имя : F:\Spisok.Shindlera.1993.Bluray.720p.Rus.Ukr.Eng..mkv
Формат : Matroska
Версия формата : Version 2
Размер файла : 13,5 Гбайт
Продолжительность : 3 ч. 15 м.
Общий поток : 9923 Кбит/сек
Название фильма : Список Шиндлера / Schindler's List (1993) | Рип L [R.G. 25 Кадр] | Unionpeer
Дата кодирования : UTC 2013-02-25 15:43:16
Программа кодирования : mkvmerge v3.2.0 ('Beginnings') built on Feb 12 2010 16:46:17
Библиотека кодирования : libebml v0.7.9 + libmatroska v0.8.1
Видео
Идентификатор : 1
Формат : AVC
Формат/Информация : Advanced Video Codec
Профиль формата : [url=mailto:[email protected]][email protected][/url]
Параметр CABAC формата : Да
Параметр ReFrames формата : 9 кадров
Идентификатор кодека : V_MPEG4/ISO/AVC
Продолжительность : 3 ч. 15 м.
Битрейт : 5500 Кбит/сек
Ширина : 1280 пикселей
Высота : 694 пикселя
Соотношение сторон : 1,85:1
Режим частоты кадров : Постоянный
Частота кадров : 23,976 кадра/сек
Цветовое пространство : YUV
Субдискретизация насыщенности : 4:2:0
Битовая глубина : 8 бит
Тип развёртки : Прогрессивная
Бит/(Пиксели*Кадры) : 0.258
Размер потока : 7,23 Гбайт (53%)
Библиотека кодирования : x264 core 129 r2245 bc13772
Настройки программы : cabac=1 / ref=9 / deblock=1:-2:-1 / analyse=0x3:0x133 / me=umh / subme=11 / psy=1 / psy_rd=1.05:0.00 / mixed_ref=1 / me_range=48 / chroma_me=1 / trellis=2 / 8x8dct=1 / cqm=0 / deadzone=21,11 / fast_pskip=0 / chroma_qp_offset=-4 / threads=12 / lookahead_threads=2 / sliced_threads=0 / nr=0 / decimate=1 / interlaced=0 / bluray_compat=0 / constrained_intra=0 / bframes=8 / b_pyramid=2 / b_adapt=2 / b_bias=0 / direct=3 / weightb=1 / open_gop=0 / weightp=2 / keyint=240 / keyint_min=22 / scenecut=40 / intra_refresh=0 / rc_lookahead=40 / rc=2pass / mbtree=1 / bitrate=5500 / ratetol=1.0 / qcomp=0.70 / qpmin=0 / qpmax=69 / qpstep=4 / cplxblur=20.0 / qblur=0.5 / ip_ratio=1.40 / aq=1:0.80
Язык : English
Default : Нет
Forced : Нет
Аудио #1
Идентификатор : 2
Формат : DTS
Формат/Информация : Digital Theater Systems
Режим : 16
Параметр Endianness формата : Big
Идентификатор кодека : A_DTS
Продолжительность : 3 ч. 15 м.
Вид битрейта : Постоянный
Битрейт : 1509 Кбит/сек
Каналы : 2 канала
Расположение каналов : Front: L R
Частота : 48,0 КГц
Битовая глубина : 24 бит
Метод сжатия : С потерями
Размер потока : 2,06 Гбайт (15%)
Заголовок : Дубляж
Язык : Russian
Default : Да
Forced : Нет
Аудио #2
Идентификатор : 3
Формат : AC-3
Формат/Информация : Audio Coding 3
Расширение режима : CM (complete main)
Параметр Endianness формата : Big
Идентификатор кодека : A_AC3
Продолжительность : 3 ч. 15 м.
Вид битрейта : Постоянный
Битрейт : 448 Кбит/сек
Каналы : 6 каналов
Расположение каналов : Front: L C R, Side: L R, LFE
Частота : 48,0 КГц
Битовая глубина : 16 бит
Метод сжатия : С потерями
Размер потока : 626 Мбайт (5%)
Заголовок : Многоголосый
Язык : Russian
Default : Нет
Forced : Нет
Аудио #3
Идентификатор : 4
Формат : DTS
Формат/Информация : Digital Theater Systems
Режим : 16
Параметр Endianness формата : Big
Идентификатор кодека : A_DTS
Продолжительность : 3 ч. 15 м.
Вид битрейта : Постоянный
Битрейт : 768 Кбит/сек
Каналы : 6 каналов
Расположение каналов : Front: L C R, Side: L R, LFE
Частота : 48,0 КГц
Битовая глубина : 24 бит
Метод сжатия : С потерями
Размер потока : 1,05 Гбайт (8%)
Заголовок : Авторский, Ю.Живов
Язык : Russian
Default : Нет
Forced : Нет
Аудио #4
Идентификатор : 5
Формат : AC-3
Формат/Информация : Audio Coding 3
Расширение режима : CM (complete main)
Параметр Endianness формата : Big
Идентификатор кодека : A_AC3
Продолжительность : 3 ч. 15 м.
Вид битрейта : Постоянный
Битрейт : 192 Кбит/сек
Каналы : 2 канала
Расположение каналов : Front: L R
Частота : 48,0 КГц
Битовая глубина : 16 бит
Метод сжатия : С потерями
Размер потока : 268 Мбайт (2%)
Заголовок : Многоголосый
Язык : Ukrainian
Default : Нет
Forced : Нет
Аудио #5
Идентификатор : 6
Формат : DTS
Формат/Информация : Digital Theater Systems
Режим : 16
Параметр Endianness формата : Big
Идентификатор кодека : A_DTS
Продолжительность : 3 ч. 15 м.
Вид битрейта : Постоянный
Битрейт : 1509 Кбит/сек
Каналы : 6 каналов
Расположение каналов : Front: L C R, Side: L R, LFE
Частота : 48,0 КГц
Битовая глубина : 24 бит
Метод сжатия : С потерями
Размер потока : 2,06 Гбайт (15%)
Заголовок : Оригинал
Язык : English
Default : Нет
Forced : Нет
Текст #1
Идентификатор : 7
Формат : UTF-8
Идентификатор кодека : S_TEXT/UTF8
Идентификатор кодека/Информация : UTF-8 Plain Text
Язык : Russian
Default : Да
Forced : Нет
Текст #2
Идентификатор : 8
Формат : UTF-8
Идентификатор кодека : S_TEXT/UTF8
Идентификатор кодека/Информация : UTF-8 Plain Text
Язык : English
Default : Нет
Forced : Нет
Меню
00:00:00.000 : en:00:00:00.000
00:03:23.161 : en:00:03:23.161
00:10:12.153 : en:00:10:12.153
00:14:51.307 : en:00:14:51.307
00:17:28.714 : en:00:17:28.714
00:21:42.384 : en:00:21:42.384
00:23:48.010 : en:00:23:48.010
00:30:37.669 : en:00:30:37.669
00:34:23.728 : en:00:34:23.728
00:41:43.751 : en:00:41:43.751
00:44:16.737 : en:00:44:16.737
00:50:55.761 : en:00:50:55.761
00:55:09.431 : en:00:55:09.431
00:56:44.860 : en:00:56:44.860
01:13:44.754 : en:01:13:44.754
01:17:05.704 : en:01:17:05.704
01:26:02.115 : en:01:26:02.115
01:29:26.319 : en:01:29:26.319
01:32:01.182 : en:01:32:01.182
01:38:36.869 : en:01:38:36.869
01:43:19.777 : en:01:43:19.777
01:49:36.612 : en:01:49:36.612
01:55:45.981 : en:01:55:45.981
01:58:42.824 : en:01:58:42.824
02:02:59.789 : en:02:02:59.789
02:06:49.310 : en:02:06:49.310
02:10:11.637 : en:02:10:11.637
02:13:44.725 : en:02:13:44.725
02:18:21.376 : en:02:18:21.376
02:26:46.506 : en:02:26:46.506
02:34:15.621 : en:02:34:15.621
02:38:48.018 : en:02:38:48.018
02:41:15.416 : en:02:41:15.416
02:46:21.763 : en:02:46:21.763
02:48:12.332 : en:02:48:12.332
02:50:23.171 : en:02:50:23.171
02:55:28.393 : en:02:55:28.393
03:01:51.359 : en:03:01:51.359
03:05:06.721 : en:03:05:06.721
03:08:51.278 : en:03:08:51.278
Скриншоты:

Время раздачи: 16:00-24:00
Вне форума [Профиль] [ЛС]
Показать сообщения:    
Ответить на тему

Текущее время: Сегодня 09:46

Часовой пояс: GMT + 3



Вы не можете начинать темы
Вы не можете отвечать на сообщения
Вы не можете редактировать свои сообщения
Вы не можете удалять свои сообщения
Вы не можете голосовать в опросах
Вы не можете прикреплять файлы к сообщениям
Вы не можете скачивать файлы