Сегодня идет свободное скачивание без начисления Download

В замечательный день / In the Cool of the Day (1963) DVDRip

Ответить на тему
 
Автор
Сообщение

UndegraundMen ®

Стаж: 3 года 9 месяцев

Сообщений: 28329

Торрент-статистика

Пост 04-Мар-2013 22:35

[Цитировать]

В замечательный день / In the Cool of the Day (1963) DVDRip-«WHY DID SHE GIVE HER LOVE TO A STRANGER...?» Русское название: В замечательный день
Оригинальное название: In the Cool of the Day
Производство: США / Metro-Goldwyn-Mayer (MGM)
Год выпуска: 1963
Жанр: Драма, Мелодрама
Описание фильма:
Экранизация новеллы Сьюзан Эртц. Сэм и Кристин Боннер - не самая счастливая семейная пара, их отношения уже давно зашли в тупик. Но Сэм всё-таки очень сильно любит Кристин, он делает для нее всё, но она чувствует себя неудовлетворенной, задыхаясь от любви заботливого супруга. Кристин хочет больше свободы для себя и ещё она хотела бы иметь ребенка. Чтобы развлечь Кристин, Сэм уговаривает своих друзей, Мюррей и Сибил, поехать вместе с ними в небольшое путешествие в Грецию...
Режиссер: Роберт Стивенс
Актеры: Питер Финч, Джейн Фонда, Анджела Лэнсбери, Артур Хилл, Констанс Каммингс, Александр Нокс, Найджел Девенпорт, Джон Ли Месурье, Алек МакКауэн, Валери Тейлор, Андреас Маркос, Джордж Кулурис, Мадлен Шервуд
Продолжительность: 01:27:44
Перевод: Одноголосый закадровый
Автор перевода: binjak

Дата мировой премьеры: 29 мая 1963
Видеокодек: Xvid
Битрейт видео: ~2198 Кбит/сек
Размер кадра: 688x288
Качество видео: DVDRip
Аудио #1: MP3, 2 ch, 128 Кбит/с, Русский
Аудио #2: MP3, 2 ch, 128 Кбит/с, Английский

MediaInfo:

Общее
Полное имя : In The Cool Of The Day.1963.DVDRip.avi
Формат : AVI
Формат/Информация : Audio Video Interleave
Размер файла : 1,51 Гбайт
Продолжительность : 1 ч. 27 м.
Общий поток : 2468 Кбит/сек
Программа кодирования : VirtualDubMod 1.5.10.2 (build 2540/release)
Библиотека кодирования : VirtualDubMod build 2540/release
Видео
Идентификатор : 0
Формат : MPEG-4 Visual
Профиль формата : Advanced [email protected]
Параметр BVOP формата : 2
Параметр QPel формата : Нет
Параметр GMC формата : Без точки перехода
Параметр матрицы формата : Default (H.263)
Режим смешивания : Сжатый битовый поток
Идентификатор кодека : XVID
Идентификатор кодека/Подсказка : XviD
Продолжительность : 1 ч. 27 м.
Битрейт : 2198 Кбит/сек
Ширина : 688 пикселей
Высота : 288 пикселей
Соотношение сторон : 2,40:1
Частота кадров : 23,976 кадра/сек
Цветовое пространство : YUV
Субдискретизация насыщенности : 4:2:0
Битовая глубина : 8 бит
Тип развёртки : Прогрессивная
Метод сжатия : С потерями
Бит/(Пиксели*Кадры) : 0.463
Размер потока : 1,35 Гбайт (89%)
Библиотека кодирования : XviD 1.2.1 (UTC 2008-12-04)
Аудио #1
Идентификатор : 1
Формат : MPEG Audio
Версия формата : Version 1
Профиль формата : Layer 3
Режим : Joint stereo
Расширение режима : MS Stereo
Идентификатор кодека : 55
Идентификатор кодека/Подсказка : MP3
Продолжительность : 1 ч. 27 м.
Вид битрейта : Постоянный
Битрейт : 128 Кбит/сек
Каналы : 2 канала
Частота : 48,0 КГц
Метод сжатия : С потерями
Размер потока : 80,3 Мбайт (5%)
Выравнивание : Разделение по промежуткам
Продолжительность промежутка : 42 мс. (1,00 видеокадр)
Время предзагрузки промежутка : 500 мс.
Аудио #2
Идентификатор : 2
Формат : MPEG Audio
Версия формата : Version 1
Профиль формата : Layer 3
Режим : Joint stereo
Расширение режима : MS Stereo
Идентификатор кодека : 55
Идентификатор кодека/Подсказка : MP3
Продолжительность : 1 ч. 27 м.
Вид битрейта : Постоянный
Битрейт : 128 Кбит/сек
Каналы : 2 канала
Частота : 48,0 КГц
Метод сжатия : С потерями
Размер потока : 80,3 Мбайт (5%)
Выравнивание : Соединение по промежуткам
Продолжительность промежутка : 42 мс. (1,00 видеокадр)
Время предзагрузки промежутка : 504 мс.
Скриншоты:
       
       
Время раздачи
с 8:00 до 02:00
Вне форума [Профиль] [ЛС]
Показать сообщения:    
Ответить на тему

Текущее время: Сегодня 09:44

Часовой пояс: GMT + 3



Вы не можете начинать темы
Вы не можете отвечать на сообщения
Вы не можете редактировать свои сообщения
Вы не можете удалять свои сообщения
Вы не можете голосовать в опросах
Вы не можете прикреплять файлы к сообщениям
Вы не можете скачивать файлы