Сегодня идет свободное скачивание без начисления Download

Скромное обаяние буржуазии / The Discreet Charm of the Bourgeoisie / Le charme discret de la bourgeoisie (1972) [720p] BDRip

Ответить на тему
 
Автор
Сообщение

UndegraundMen ®

Стаж: 3 года 9 месяцев

Сообщений: 28329

Торрент-статистика

Пост 05-Мар-2013 05:20

[Цитировать]

Скромное обаяние буржуазии / The Discreet Charm of the Bourgeoisie / Le charme discret de la bourgeoisie (1972) [720p] BDRip
- - Название: Скромное обаяние буржуазии
Оригинальное название: The Discreet Charm of the Bourgeoisie / Le charme discret de la bourgeoisie
Год выпуска: 1972
Жанр: Комедия, драма, фэнтези
Выпущено: Франция, Италия, Испания, Dean Film, Greenwich Film Productions, Jet Films
Описание фильма:
Насмешливая, сюрреалистическая зарисовка никчемной жизни буржуа. Непредвиденные обстоятельства с завидным постоянством препятствуют вожделению героев отобедать. Сон и явь сплетаются в калейдоскоп бредовых событий.
Режиссер: Луис Бунюэль
В ролях: Фернандо Рей, Поль Франкер, Дельфин Сейриг, Бюль Ожье, Стефан Одран, Жан-Пьер Кассель, Жюльен Берто, Милена Вукотич, Мария Габриэлла Майон, Клод Пьеплю, Мюни, Пьер Магелон, Франсуа Мэтр, Мишель Пикколи, Эллен Баль, Кристиан Бальтосс, Робер Бенуа, Анн-Мари Дешодт, Жорж Дукинг, Жан Деграв, Себастьян Флош, Клод Жегер, Жан-Клод Джерри, Пьер Лари, Робер Ле Беаль, Аликс Махье, Бернар Мюссон, Максанс Мельфор, Робер Парти, Жан Ревель, Жак Риспаль, Ампаро Солер Лил, Дайан Вернон
Продолжительность: 01:41:31
Перевод: Многоголосый закадровый, Двухголосый закадровый, Одноголосый закадровый
Субтитры: Английские, Русские

Рейтинг MPAA: PG 13– лицам до 13 лет обязательное присутствие родителей!!!
Дата мировой премьеры: 5 сентября 1972
Видеокодек: MPEG-4 AVC
Битрейт видео: ~ 8995 Кбит/сек
Размер кадра: 1202x720
Качество видео: BDRip
Аудио:
1. DTS Русский 2.0 / 48 kHz / 768 kbps / 16-bit (Двухголосый закадровый, R5, RUSCICO)
2. Dolby Digital Русский 2.0 / 48 kHz / 192 kbps (Многоголосый закадровый, DVD Магия)
3. Dolby Digital Русский 2.0 / 48 kHz / 192 kbps (Многоголосый закадровый, SomeWax)
4. Dolby Digital Русский 2.0 / 48 kHz / 192 kbps (Многоголосый закадровый, НТВ)
5. DTS Русский 2.0 / 48 kHz / 768 kbps / 16-bit (Одноголосый закадровый, С.Кузнецов)
6. DTS Французский 2.0 / 48 kHz / 768 kbps / 16-bit

Награды и номинации

Британская академия, 1974 год
Победитель (2):
Лучшая женская роль (Стефан Одран)
Лучший сценарий
Номинации (3):
Лучший фильм
Лучший режиссер (Луис Бунюэль)
Лучший саундтрек
Оскар, 1973 год
Победитель (1):
Лучший фильм на иностранном языке — «Франция»
Номинации (1):
Лучший адаптированный сценарий по мотивам ранее не опубликованного материала или документальных фактов
Золотой глобус, 1973 год
Номинации (1):
Лучший иностранный фильм — «Франция»

Знаете ли вы, что...

• Луис Бунюэль указан в титрах как создатель звуковых эффектов, несмотря на то что в то время он был уже почти полностью глухим.
• Одна из фирменных «фишек» Луиса Бунюэля — насекомые. В этом фильме в эпизоде пытки в тюрьме из фортепиано появляются тараканы.
• Когда дон Рафаэль Акоста говорит Флоранс о своем дне рождения, он называет дату рождения Луиса Бунюэля — 22 февраля.

MediaInfo

Общее
Уникальный идентификатор : 237964584968215721408052871466954582724 (0xB3064FDE897FAE9EB2D042A5ED94EAC4)
Полное имя : D:\The.Discreet.Charm.of.the.Bourgeoisie.1972.720p.BluRay.5xRus.Fre.HDCLUB.mkv
Формат : Matroska
Версия формата : Version 2
Размер файла : 8,59 Гбайт
Продолжительность : 1 ч. 41 м.
Общий поток : 12,1 Мбит/сек
Дата кодирования : UTC 2013-03-02 20:12:50
Программа кодирования : mkvmerge v5.8.0 ('No Sleep / Pillow') built on Sep 2 2012 15:37:04
Библиотека кодирования : libebml v1.2.3 + libmatroska v1.3.0
Видео
Идентификатор : 1
Формат : AVC
Формат/Информация : Advanced Video Codec
Профиль формата : [url=mailto:[email protected]][email protected][/url]
Параметр CABAC формата : Да
Параметр ReFrames формата : 8 кадров
Идентификатор кодека : V_MPEG4/ISO/AVC
Продолжительность : 1 ч. 41 м.
Битрейт : 8995 Кбит/сек
Ширина : 1202 пикселя
Высота : 720 пикселей
Соотношение сторон : 1,669
Режим частоты кадров : Постоянный
Частота кадров : 24,000 кадра/сек
Цветовое пространство : YUV
Субдискретизация насыщенности : 4:2:0
Битовая глубина : 8 бит
Тип развёртки : Прогрессивная
Бит/(Пиксели*Кадры) : 0.433
Размер потока : 6,38 Гбайт (74%)
Библиотека кодирования : x264 core 129 r2245 bc13772
Настройки программы : cabac=1 / ref=8 / deblock=1:-3:-2 / analyse=0x3:0x113 / me=umh / subme=11 / psy=1 / psy_rd=1.10:0.10 / mixed_ref=1 / me_range=32 / chroma_me=1 / trellis=2 / 8x8dct=1 / cqm=0 / deadzone=21,11 / fast_pskip=0 / chroma_qp_offset=-3 / threads=12 / lookahead_threads=2 / sliced_threads=0 / nr=0 / decimate=1 / interlaced=0 / bluray_compat=0 / constrained_intra=0 / bframes=9 / b_pyramid=2 / b_adapt=2 / b_bias=0 / direct=1 / weightb=1 / open_gop=0 / weightp=2 / keyint=240 / keyint_min=24 / scenecut=40 / intra_refresh=0 / rc=crf / mbtree=0 / crf=18.0 / qcomp=0.70 / qpmin=0 / qpmax=69 / qpstep=4 / ip_ratio=1.40 / pb_ratio=1.30 / aq=2:0.80
Язык : French
Default : Да
Forced : Нет
Основные цвета : BT.709
Характеристики трансфера : BT.709
Коэффициенты матрицы : BT.709
Аудио #1
Идентификатор : 2
Формат : DTS
Формат/Информация : Digital Theater Systems
Режим : 16
Параметр Endianness формата : Big
Идентификатор кодека : A_DTS
Продолжительность : 1 ч. 41 м.
Вид битрейта : Постоянный
Битрейт : 768 Кбит/сек
Каналы : 2 канала
Расположение каналов : Front: L R
Частота : 48,0 КГц
Битовая глубина : 16 бит
Метод сжатия : С потерями
Задержка видео : 21 мс.
Размер потока : 558 Мбайт (6%)
Заголовок : Двухголосый закадровый, R5, RUSCICO, DTS 768 Kbps 2/0
Язык : Russian
Default : Да
Forced : Нет
Аудио #2
Идентификатор : 3
Формат : AC-3
Формат/Информация : Audio Coding 3
Расширение режима : CM (complete main)
Параметр Endianness формата : Big
Идентификатор кодека : A_AC3
Продолжительность : 1 ч. 41 м.
Вид битрейта : Постоянный
Битрейт : 192 Кбит/сек
Каналы : 2 канала
Расположение каналов : Front: L R
Частота : 48,0 КГц
Битовая глубина : 16 бит
Метод сжатия : С потерями
Размер потока : 139 Мбайт (2%)
Заголовок : Многоголосый закадровый, R5, DVD Магия, AC-3 192 Kbps 2/0
Язык : Russian
Default : Нет
Forced : Нет
Аудио #3
Идентификатор : 4
Формат : AC-3
Формат/Информация : Audio Coding 3
Расширение режима : CM (complete main)
Параметр Endianness формата : Big
Идентификатор кодека : A_AC3
Продолжительность : 1 ч. 41 м.
Вид битрейта : Постоянный
Битрейт : 192 Кбит/сек
Каналы : 2 канала
Расположение каналов : Front: L R
Частота : 48,0 КГц
Битовая глубина : 16 бит
Метод сжатия : С потерями
Размер потока : 139 Мбайт (2%)
Заголовок : Многоголосый закадровый, R5, SomeWax, AC-3 192 Kbps 2/0
Язык : Russian
Default : Нет
Forced : Нет
Аудио #4
Идентификатор : 5
Формат : AC-3
Формат/Информация : Audio Coding 3
Расширение режима : CM (complete main)
Параметр Endianness формата : Big
Идентификатор кодека : A_AC3
Продолжительность : 1 ч. 41 м.
Вид битрейта : Постоянный
Битрейт : 192 Кбит/сек
Каналы : 2 канала
Расположение каналов : Front: L R
Частота : 48,0 КГц
Битовая глубина : 16 бит
Метод сжатия : С потерями
Размер потока : 139 Мбайт (2%)
Заголовок : Многоголосый закадровый, НТВ, AC-3 192 Kbps 2/0
Язык : Russian
Default : Нет
Forced : Нет
Аудио #5
Идентификатор : 6
Формат : DTS
Формат/Информация : Digital Theater Systems
Режим : 16
Параметр Endianness формата : Big
Идентификатор кодека : A_DTS
Продолжительность : 1 ч. 41 м.
Вид битрейта : Постоянный
Битрейт : 768 Кбит/сек
Каналы : 2 канала
Расположение каналов : Front: L R
Частота : 48,0 КГц
Битовая глубина : 16 бит
Метод сжатия : С потерями
Задержка видео : 21 мс.
Размер потока : 558 Мбайт (6%)
Заголовок : Одноголосый закадровый, С.Кузнецов, DTS 768 Kbps 2/0
Язык : Russian
Default : Нет
Forced : Нет
Аудио #6
Идентификатор : 7
Формат : DTS
Формат/Информация : Digital Theater Systems
Режим : 16
Параметр Endianness формата : Big
Идентификатор кодека : A_DTS
Продолжительность : 1 ч. 41 м.
Вид битрейта : Постоянный
Битрейт : 768 Кбит/сек
Каналы : 2 канала
Расположение каналов : Front: L R
Частота : 48,0 КГц
Битовая глубина : 16 бит
Метод сжатия : С потерями
Задержка видео : 21 мс.
Размер потока : 558 Мбайт (6%)
Заголовок : Оригинал, DTS 768 Kbps 2/0
Язык : French
Default : Нет
Forced : Нет
Текст #1
Идентификатор : 8
Формат : UTF-8
Идентификатор кодека : S_TEXT/UTF8
Идентификатор кодека/Информация : UTF-8 Plain Text
Заголовок : Субтитры
Язык : Russian
Default : Нет
Forced : Нет
Текст #2
Идентификатор : 9
Формат : UTF-8
Идентификатор кодека : S_TEXT/UTF8
Идентификатор кодека/Информация : UTF-8 Plain Text
Заголовок : Субтитры
Язык : English
Default : Нет
Forced : Нет
Меню
00:00:00.000 : fr:Chapter 01
00:09:37.125 : fr:Chapter 02
00:19:27.000 : fr:Chapter 03
00:28:58.208 : fr:Chapter 04
00:38:42.750 : fr:Chapter 05
00:47:55.083 : fr:Chapter 06
00:55:44.541 : fr:Chapter 07
01:02:33.375 : fr:Chapter 08
01:14:19.541 : fr:Chapter 09
01:24:12.041 : fr:Chapter 10
01:31:07.083 : fr:Chapter 11
01:40:02.625 : fr:Chapter 12
Скриншоты:
       -Не забываем говорить спасибо, Вам не сложно, а мне приятно)))
Прошу с раздачи не уходить! Скачал сам, дай и другим скачать!!!
Приятного просмотра)))
Вне форума [Профиль] [ЛС]
Показать сообщения:    
Ответить на тему

Текущее время: Сегодня 14:51

Часовой пояс: GMT + 3



Вы не можете начинать темы
Вы не можете отвечать на сообщения
Вы не можете редактировать свои сообщения
Вы не можете удалять свои сообщения
Вы не можете голосовать в опросах
Вы не можете прикреплять файлы к сообщениям
Вы не можете скачивать файлы