Сегодня идет свободное скачивание без начисления Download

Джанго / Django (1966) [720p] BDRip

Ответить на тему
 
Автор
Сообщение

UndegraundMen ®

Стаж: 3 года 9 месяцев

Сообщений: 28329

Торрент-статистика

Пост 05-Мар-2013 05:20

[Цитировать]

Джанго / Django (1966) [720p] BDRip
- «The movie that spawned a genre.» - Название: Джанго
Оригинальное название: Django
Год выпуска: 1966
Жанр: Вестерн
Выпущено: Италия, Испания, Франция, Manolo Blognini production der der B.R.C Roma, Tegisa Madrid
Описание фильма:
Классический вестерн, главную роль в котором исполняет Франко Неро. Как всегда, Дикий Запад наполнен бандитами и головорезами. Терроризм процветает на территории небольшого городка, пока в нем не появляется защитник слабых и угнетенных Джанго. Он появляется ниоткуда, притащив за собой на веревке гроб с "секретом". Трудна миссия по защите угнетенных, но, как всегда, выполнима, тем более, если за дело берется Джанго
Режиссер: Серджо Корбуччи
В ролях: Франко Неро, Хосе Бодало, Лорендана Нушяк, Анхель Альварес, Джимми Даглас, Симон Арриага, Иван Скаратуглиа, Эрик Шипперс, Рафаэль Албайчин, Хосе Каналекас, Эдуардо Фаджардо, Сильвана Баччи, Ремо Де Анджелис, Гильермо Мендез, Лючано Росси, Хосе Террон
Продолжительность: 01:31:35
Перевод: Многоголосый закадровый
Субтитры: Английские, Русские
Рейтинг MPAA: PG 13– лицам до 13 лет обязательное присутствие родителей!!!
Дата мировой премьеры: 6 апреля 1966
Дата DVD премьеры: 16 июня 2011, «Cinema Prestige»
Видеокодек: MPEG-4 AVC
Битрейт видео: ~ 5 669 Kbps
Размер кадра: 1200х720
Качество видео: BDRip
Аудио:
1. Dolby Digital Русский 5.1 / 48 kHz / 384 kbps (Многоголосый закадровый, Cinema Prestige)
2. DTS Английский 1.0 / 48 kHz / 768 kbps / 24-bit

Знаете ли вы, что...

• Пулемёт Джанго — фальшивка. Это гибрид между французской «митральезой де Реффи», орудием Гатлинга и пулемётом Максима с водяным охлаждением. Пулемётная лента не движется и патроны есть с обеих сторон оружия. Как минимум с другой стороны должна быть пустая лента. Лента так же размещена слишком далеко от механизма пулемёта.
• В финальной сцене есть ляп: револьвер, из которого стреляет Джанго, делает семь выстрелов, немотря на то, что емкость барабана — шесть патронов.
• В 2008 году японский режиссер Такаси Миикэ снял фильм «Сукияки Вестерн Джанго» с явной отсылкой к фильму Серджо Корбуччи. В частности, в японском фильме также присутствует гроб.

MediaInfo

Format : Matroska
File size : 4.37 GiB
Duration : 1h 31mn
Overall bit rate : 6 824 Kbps
Movie name : Django (1966)
Encoded date : UTC 2011-06-19 19:09:34
Writing application : mkvmerge v4.7.0 ('Just Like You Imagined') сборка от Apr 21 2011 01:13:14
Writing library : libebml v1.2.0 + libmatroska v1.1.0
Video
ID : 1
Format : AVC
Format/Info : Advanced Video Codec
Format profile : [url=mailto:[email protected]][email protected][/url]
Format settings, CABAC : Yes
Format settings, ReFrames : 8 frames
Codec ID : V_MPEG4/ISO/AVC
Duration : 1h 31mn
Bit rate : 5 669 Kbps
Width : 1 200 pixels
Height : 720 pixels
Display aspect ratio : 1.667
Frame rate : 23.976 fps
Color space : YUV
Chroma subsampling : 4:2:0
Bit depth : 8 bits
Scan type : Progressive
Bits/(Pixel*Frame) : 0.274
Stream size : 3.55 GiB (81%)
Title : Django (1966)
Writing library : x264 core 115 r2008 4c552d8
Encoding settings : cabac=1 / ref=8 / deblock=1:-2:-1 / analyse=0x3:0x113 / me=umh / subme=10 / psy=1 / psy_rd=1.00:0.20 / mixed_ref=1 / me_range=32 / chroma_me=1 / trellis=2 / 8x8dct=1 / cqm=0 / deadzone=21,11 / fast_pskip=0 / chroma_qp_offset=-3 / threads=12 / sliced_threads=0 / nr=0 / decimate=0 / interlaced=0 / bluray_compat=0 / constrained_intra=0 / bframes=3 / b_pyramid=2 / b_adapt=2 / b_bias=0 / direct=3 / weightb=1 / open_gop=0 / weightp=2 / keyint=250 / keyint_min=23 / scenecut=40 / intra_refresh=0 / rc_lookahead=60 / rc=2pass / mbtree=1 / bitrate=5669 / ratetol=1.0 / qcomp=0.60 / qpmin=0 / qpmax=69 / qpstep=4 / cplxblur=20.0 / qblur=0.5 / vbv_maxrate=50000 / vbv_bufsize=50000 / nal_hrd=none / ip_ratio=1.40 / aq=1:1.00
Language : English
Audio #1
ID : 2
Format : AC-3
Format/Info : Audio Coding 3
Mode extension : CM (complete main)
Codec ID : A_AC3
Duration : 1h 31mn
Bit rate mode : Constant
Bit rate : 384 Kbps
Channel(s) : 6 channels
Channel positions : Front: L C R, Side: L R, LFE
Sampling rate : 48.0 KHz
Bit depth : 16 bits
Compression mode : Lossy
Stream size : 252 MiB (6%)
Title : MVO
Language : Russian
Audio #2
ID : 3
Format : DTS
Format/Info : Digital Theater Systems
Codec ID : A_DTS
Duration : 1h 31mn
Bit rate mode : Constant
Bit rate : 755 Kbps
Channel(s) : 1 channel
Channel positions : Front: C
Sampling rate : 48.0 KHz
Bit depth : 24 bits
Compression mode : Lossy
Stream size : 494 MiB (11%)
Title : Original
Language : English
Text #1
ID : 4
Format : UTF-8
Codec ID : S_TEXT/UTF8
Codec ID/Info : UTF-8 Plain Text
Title : Russian
Language : Russian
Text #2
ID : 5
Format : UTF-8
Codec ID : S_TEXT/UTF8
Codec ID/Info : UTF-8 Plain Text
Title : English
Language : English
Скриншоты:
-Раздача: 24/7-Не забываем говорить спасибо, Вам не сложно, а мне приятно)))
Прошу с раздачи не уходить! Скачал сам, дай и другим скачать!!!
Приятного просмотра)))
Вне форума [Профиль] [ЛС]
Показать сообщения:    
Ответить на тему

Текущее время: Сегодня 02:54

Часовой пояс: GMT + 3



Вы не можете начинать темы
Вы не можете отвечать на сообщения
Вы не можете редактировать свои сообщения
Вы не можете удалять свои сообщения
Вы не можете голосовать в опросах
Вы не можете прикреплять файлы к сообщениям
Вы не можете скачивать файлы