Сегодня идет свободное скачивание без начисления Download

Джанго / Django (1966) [1080p] BDRip

Ответить на тему
 
Автор
Сообщение

UndegraundMen ®

Стаж: 3 года 9 месяцев

Сообщений: 28329

Торрент-статистика

Пост 05-Мар-2013 05:20

[Цитировать]

Джанго / Django (1966) [1080p] BDRip
- «The movie that spawned a genre.» - Название: Джанго
Оригинальное название: Django
Год выпуска: 1966
Жанр: Вестерн
Выпущено: Италия, Испания, Франция, Manolo Blognini production der der B.R.C Roma, Tegisa Madrid
Описание фильма:
Классический вестерн, главную роль в котором исполняет Франко Неро. Как всегда, Дикий Запад наполнен бандитами и головорезами. Терроризм процветает на территории небольшого городка, пока в нем не появляется защитник слабых и угнетенных Джанго. Он появляется ниоткуда, притащив за собой на веревке гроб с "секретом". Трудна миссия по защите угнетенных, но, как всегда, выполнима, тем более, если за дело берется Джанго
Режиссер: Серджо Корбуччи
В ролях: Франко Неро, Хосе Бодало, Лорендана Нушяк, Анхель Альварес, Джимми Даглас, Симон Арриага, Иван Скаратуглиа, Эрик Шипперс, Рафаэль Албайчин, Хосе Каналекас, Эдуардо Фаджардо, Сильвана Баччи, Ремо Де Анджелис, Гильермо Мендез, Лючано Росси, Хосе Террон
Продолжительность: 01:31:35
Перевод: Многоголосый закадровый
Субтитры: Английские, Русские
Рейтинг MPAA: PG 13– лицам до 13 лет обязательное присутствие родителей!!!
Дата мировой премьеры: 6 апреля 1966
Дата DVD премьеры: 16 июня 2011, «Cinema Prestige»
Видеокодек: MPEG-4 AVC
Битрейт видео: ~ 9663 Кбит/сек
Размер кадра: 1800х1080
Качество видео: BDRip
Аудио:
1. Dolby Digital Русский 5.1 / 48 kHz / 384 kbps (Многоголосый закадровый, Cinema Prestige)
2. DTS Английский 1.0 / 48 kHz / 768 kbps / 24-bit

Знаете ли вы, что...

• Пулемёт Джанго — фальшивка. Это гибрид между французской «митральезой де Реффи», орудием Гатлинга и пулемётом Максима с водяным охлаждением. Пулемётная лента не движется и патроны есть с обеих сторон оружия. Как минимум с другой стороны должна быть пустая лента. Лента так же размещена слишком далеко от механизма пулемёта.
• В финальной сцене есть ляп: револьвер, из которого стреляет Джанго, делает семь выстрелов, немотря на то, что емкость барабана — шесть патронов.
• В 2008 году японский режиссер Такаси Миикэ снял фильм «Сукияки Вестерн Джанго» с явной отсылкой к фильму Серджо Корбуччи. В частности, в японском фильме также присутствует гроб.

MediaInfo

Общее
Уникальный идентификатор : 170871376635853427591640120261237528937 (0x808CA14D96D056E9821D86572253D969)
Формат : Matroska
Версия формата : Version 4 / Version 2
Размер файла : 7,06 Гбайт
Продолжительность : 1 ч. 31 м.
Общий поток : 11,0 Мбит/сек
Дата кодирования : UTC 2010-02-22 21:41:31
Программа кодирования : mkvmerge v5.9.0 ('On The Loose') built on Dec 9 2012 15:37:01
Библиотека кодирования : libebml v1.3.0 + libmatroska v1.4.0
Видео
Идентификатор : 1
Формат : AVC
Формат/Информация : Advanced Video Codec
Профиль формата : [url=mailto:[email protected]][email protected][/url]
Параметр CABAC формата : Да
Параметр ReFrames формата : 4 кадра
Идентификатор кодека : V_MPEG4/ISO/AVC
Продолжительность : 1 ч. 31 м.
Битрейт : 9663 Кбит/сек
Ширина : 1800 пикселей
Высота : 1080 пикселей
Соотношение сторон : 1,667
Режим частоты кадров : Постоянный
Частота кадров : 23,976 кадра/сек
Цветовое пространство : YUV
Субдискретизация насыщенности : 4:2:0
Битовая глубина : 8 бит
Тип развёртки : Прогрессивная
Бит/(Пиксели*Кадры) : 0.207
Размер потока : 6,18 Гбайт (88%)
Библиотека кодирования : x264 core 129 r2230 1cffe9f
Настройки программы : cabac=1 / ref=4 / deblock=1:-3:-3 / analyse=0x3:0x113 / me=umh / subme=9 / psy=1 / psy_rd=1.00:0.15 / mixed_ref=1 / me_range=24 / chroma_me=1 / trellis=2 / 8x8dct=1 / cqm=0 / deadzone=21,11 / fast_pskip=1 / chroma_qp_offset=-3 / threads=6 / lookahead_threads=1 / sliced_threads=0 / nr=0 / decimate=1 / interlaced=0 / bluray_compat=0 / constrained_intra=0 / bframes=8 / b_pyramid=2 / b_adapt=2 / b_bias=0 / direct=1 / weightb=1 / open_gop=0 / weightp=2 / keyint=230 / keyint_min=23 / scenecut=40 / intra_refresh=0 / rc=crf / mbtree=0 / crf=26.0 / qcomp=0.60 / qpmin=0 / qpmax=69 / qpstep=4 / ip_ratio=1.40 / pb_ratio=1.30 / aq=1:1.00
Язык : English
Default : Да
Forced : Нет
Аудио #1
Идентификатор : 2
Формат : AC-3
Формат/Информация : Audio Coding 3
Расширение режима : CM (complete main)
Параметр Endianness формата : Big
Идентификатор кодека : A_AC3
Продолжительность : 1 ч. 31 м.
Вид битрейта : Постоянный
Битрейт : 384 Кбит/сек
Каналы : 6 каналов
Расположение каналов : Front: L C R, Side: L R, LFE
Частота : 48,0 КГц
Битовая глубина : 16 бит
Метод сжатия : С потерями
Размер потока : 251 Мбайт (3%)
Заголовок : MVO
Язык : Russian
Default : Да
Forced : Нет
Аудио #2
Идентификатор : 3
Формат : DTS
Формат/Информация : Digital Theater Systems
Режим : 16
Параметр Endianness формата : Big
Идентификатор кодека : A_DTS
Продолжительность : 1 ч. 31 м.
Вид битрейта : Постоянный
Битрейт : 768 Кбит/сек
Каналы : 1 канал
Расположение каналов : Front: C
Частота : 48,0 КГц
Битовая глубина : 24 бит
Метод сжатия : С потерями
Размер потока : 503 Мбайт (7%)
Заголовок : Original
Язык : English
Default : Нет
Forced : Нет
Текст #1
Идентификатор : 4
Формат : UTF-8
Идентификатор кодека : S_TEXT/UTF8
Идентификатор кодека/Информация : UTF-8 Plain Text
Заголовок : русский
Язык : Russian
Default : Нет
Forced : Нет
Текст #2
Идентификатор : 5
Формат : UTF-8
Идентификатор кодека : S_TEXT/UTF8
Идентификатор кодека/Информация : UTF-8 Plain Text
Заголовок : английский
Default : Нет
Forced : Нет
Скриншоты:
-Раздача: 24/7-Не забываем говорить спасибо, Вам не сложно, а мне приятно)))
Прошу с раздачи не уходить! Скачал сам, дай и другим скачать!!!
Приятного просмотра)))
Вне форума [Профиль] [ЛС]
Показать сообщения:    
Ответить на тему

Текущее время: Сегодня 02:54

Часовой пояс: GMT + 3



Вы не можете начинать темы
Вы не можете отвечать на сообщения
Вы не можете редактировать свои сообщения
Вы не можете удалять свои сообщения
Вы не можете голосовать в опросах
Вы не можете прикреплять файлы к сообщениям
Вы не можете скачивать файлы