Сегодня идет свободное скачивание без начисления Download

Похитители велосипедов / Bicycle Thieve / Ladri di biciclette (1948) [1080p] BDRip

Ответить на тему
 
Автор
Сообщение

UndegraundMen ®

Стаж: 3 года 9 месяцев

Сообщений: 28329

Торрент-статистика

Пост 05-Мар-2013 05:20

[Цитировать]

Похитители велосипедов / Bicycle Thieve / Ladri di biciclette (1948) [1080p] BDRip
- - Название: Похитители велосипедов
Оригинальное название: Bicycle Thieve / Ladri di biciclette
Год выпуска: 1948
Жанр: Драма, криминал
Выпущено: Италия
Описание фильма:
Послевоенный Рим, давно неработающий Антонио Рикки вне себя от радости — он наконец-то находит работу. Но в первый же трудовой день у него украли велосипед, без которого невозможно работать! Вместе с маленьким сыном Бруно он пытается найти в огромном городе украденный велосипед, от которого зависит жизнь его семьи…
Режиссер: Витторио Де Сика
Ассистент режиссера: Серджио Леоне
В ролях: Ламберто Маджорани, Энцо Стайола, Лианелла Карелл, Джино Сальтамеренда, Витторио Антонуччи, Джулио Кьяри, Елена Алтери, Карло Якино, Микеле Сакара, Эмма Дретти
Продолжительность: 01:30:40
Перевод: Многоголосый закадровый
Субтитры: Английские
Рейтинг MPAA: PG 13– лицам до 13 лет обязательное присутствие родителей!!!
Дата мировой премьеры: 24 ноября 1948,
Видеокодек: MPEG-4 AVC
Битрейт видео: ~ 8637 Кбит/сек
Размер кадра: 1440х1080
Качество видео: BDRip
Аудио:
1. Dolby Digital Русский 2.0 / 48 kHz / 192 kbps (Многоголосый закадровый)
2. DTS Итальянский 2.0 / 48 kHz / 768 kbps / 24-bit

Награды и номинации

Оскар, 1950 год
Победитель (1):
Специальная награда за лучший фильм на иностранном языке
Номинации (1):
Лучший адаптированный сценарий
Золотой глобус, 1950 год
Победитель (1):
Лучший иностранный фильм — «Италия»
Британская академия, 1950 год
Победитель (1):
Лучший фильм

MediaInfo

Общее
Уникальный идентификатор : 183856742674252951932307135915879905231 (0x8A5185474FDCF0B9A594E7B3343937CF)
Полное имя : E:\Pohititeli.velosipedov.1948.x264.BDRip.1080p.mkv
Формат : Matroska
Версия формата : Version 4 / Version 2
Размер файла : 6,20 Гбайт
Продолжительность : 1 ч. 30 м.
Общий поток : 9792 Кбит/сек
Дата кодирования : UTC 2010-02-22 21:41:31
Программа кодирования : mkvmerge v5.9.0 ('On The Loose') built on Dec 9 2012 15:37:01
Библиотека кодирования : libebml v1.3.0 + libmatroska v1.4.0
Видео
Идентификатор : 1
Формат : AVC
Формат/Информация : Advanced Video Codec
Профиль формата : [url=mailto:[email protected]][email protected][/url]
Параметр CABAC формата : Да
Параметр ReFrames формата : 4 кадра
Идентификатор кодека : V_MPEG4/ISO/AVC
Продолжительность : 1 ч. 30 м.
Битрейт : 8637 Кбит/сек
Ширина : 1440 пикселей
Высота : 1080 пикселей
Соотношение сторон : 4:3
Режим частоты кадров : Постоянный
Частота кадров : 24,000 кадра/сек
Цветовое пространство : YUV
Субдискретизация насыщенности : 4:2:0
Битовая глубина : 8 бит
Тип развёртки : Прогрессивная
Бит/(Пиксели*Кадры) : 0.231
Размер потока : 5,47 Гбайт (88%)
Библиотека кодирования : x264 core 129 r2230 1cffe9f
Настройки программы : cabac=1 / ref=4 / deblock=1:-1:-1 / analyse=0x3:0x113 / me=umh / subme=9 / psy=1 / psy_rd=1.00:0.15 / mixed_ref=1 / me_range=24 / chroma_me=1 / trellis=2 / 8x8dct=1 / cqm=0 / deadzone=21,11 / fast_pskip=1 / chroma_qp_offset=-3 / threads=6 / lookahead_threads=1 / sliced_threads=0 / nr=0 / decimate=1 / interlaced=0 / bluray_compat=0 / constrained_intra=0 / bframes=10 / b_pyramid=2 / b_adapt=2 / b_bias=0 / direct=1 / weightb=1 / open_gop=0 / weightp=2 / keyint=230 / keyint_min=23 / scenecut=40 / intra_refresh=0 / rc=crf / mbtree=0 / crf=22.3 / qcomp=0.60 / qpmin=0 / qpmax=69 / qpstep=4 / ip_ratio=1.40 / pb_ratio=1.30 / aq=1:1.00
Язык : Italian
Default : Да
Forced : Нет
Аудио #1
Идентификатор : 2
Формат : AC-3
Формат/Информация : Audio Coding 3
Расширение режима : CM (complete main)
Параметр Endianness формата : Big
Идентификатор кодека : A_AC3
Продолжительность : 1 ч. 30 м.
Вид битрейта : Постоянный
Битрейт : 192 Кбит/сек
Каналы : 2 канала
Расположение каналов : Front: L R
Частота : 48,0 КГц
Битовая глубина : 16 бит
Метод сжатия : С потерями
Размер потока : 125 Мбайт (2%)
Заголовок : MVO
Язык : Russian
Default : Да
Forced : Нет
Аудио #2
Идентификатор : 3
Формат : DTS
Формат/Информация : Digital Theater Systems
Режим : 16
Параметр Endianness формата : Big
Идентификатор кодека : A_DTS
Продолжительность : 1 ч. 30 м.
Вид битрейта : Постоянный
Битрейт : 768 Кбит/сек
Каналы : 2 канала
Расположение каналов : Front: L R
Частота : 48,0 КГц
Битовая глубина : 24 бит
Метод сжатия : С потерями
Размер потока : 498 Мбайт (8%)
Заголовок : Original
Язык : Italian
Default : Нет
Forced : Нет
Текст
Идентификатор : 4
Формат : UTF-8
Идентификатор кодека : S_TEXT/UTF8
Идентификатор кодека/Информация : UTF-8 Plain Text
Заголовок : английский
Язык : English
Default : Нет
Forced : Нет
Скриншоты:
-Раздача: 24/7-Не забываем говорить спасибо, Вам не сложно, а мне приятно)))
Прошу с раздачи не уходить! Скачал сам, дай и другим скачать!!!
Приятного просмотра)))
Вне форума [Профиль] [ЛС]
Показать сообщения:    
Ответить на тему

Текущее время: Сегодня 05:12

Часовой пояс: GMT + 3



Вы не можете начинать темы
Вы не можете отвечать на сообщения
Вы не можете редактировать свои сообщения
Вы не можете удалять свои сообщения
Вы не можете голосовать в опросах
Вы не можете прикреплять файлы к сообщениям
Вы не можете скачивать файлы