Сегодня идет свободное скачивание без начисления Download

Дневная красавица / Belle de jour (1967) [720p] BDRip

Ответить на тему
 
Автор
Сообщение

UndegraundMen ®

Стаж: 3 года 9 месяцев

Сообщений: 28329

Торрент-статистика

Пост 05-Мар-2013 05:20

[Цитировать]

Дневная красавица / Belle de jour (1967) BDRip-«Luis Bunuel's Masterpiece of Erotica!»
Русское название: Дневная красавица
Оригинальное название: Belle de jour
Год выпуска: 1967
Жанр: Драма
Описание фильма:
Верная жена и добропорядочная хозяйка Северина Серизи однажды решается на невероятный и совершенно аморальный эксперимент. Устав от собственной непогрешимости, она тайно поступает на работу в публичный дом некой мадам Анаис. Но так как по вечерам и по ночам Северина продолжает играть свою привычную роль буржуазной кошечки, в борделе она получает имя «Дневная красавица». Как любая проститутка она исполняет все желания своих клиентов. А затем возвращается к домашнему очагу. Таким образом, Северина начинает вести двойную жизнь. И никто из ее близких даже не догадывается о том, как Северина проводит свои дни.
Режиссер: Луис Бунюэль
Актеры: Катрин Денев, Жан Сорель, Мишель Пикколи, Женевьев Паж, Франсиско Рабаль, Пьер Клементи, Жорж Маршаль, Маша Мериль, Франсуаза Фабиан, Мария Латур
Продолжительность: 01:39:53
Перевод: Многоголосый закадровый
Язык субтитров: Русские, Английские
Вид субтитров: Вшитые
Рейтинг MPAA-R
Дата мировой премьеры: 24 мая 1967
Видеокодек: MPEG-4 AVC/H.264
Битрейт видео: ~8676 Кбит/сек
Размер кадра: 1208x720
Качество видео: BDRip
Аудиокодек: AC3
Aудио 1: DTS Русский 2.0 / 48 kHz / 755 kbps / 24-bit Многоголосый закадровый R5
Aудио 2: DTS Французский 2.0 / 48 kHz / 768 kbps / 24-bit
Сэмпл: Ссылка

MediaInfo

Общее
Уникальный идентификатор : 228698131598432106287501455086209546930 (0xAC0DA871D76C00FE95CB4FBDB3B13AB2)
Полное имя : C:\Xvid4PSP\Дневная красавица.Sample.mkv
Формат : Matroska
Версия формата : Version 4 / Version 2
Размер файла : 70,5 Мбайт
Продолжительность : 56 с.
Общий поток : 10,4 Мбит/сек
Название фильма : Belle de jour (1967) - Release for HDCLUB
Дата кодирования : UTC 2013-03-03 21:20:36
Программа кодирования : mkvmerge v6.0.0 ('Coming Up For Air') built on Jan 20 2013 09:52:00
Библиотека кодирования : libebml v1.3.0 + libmatroska v1.4.0
Attachment : Yes / Yes
Видео
Идентификатор : 1
Формат : AVC
Формат/Информация : Advanced Video Codec
Профиль формата : [url=mailto:[email protected]][email protected][/url]
Параметр CABAC формата : Да
Параметр ReFrames формата : 9 кадров
Идентификатор кодека : V_MPEG4/ISO/AVC
Продолжительность : 56 с.
Битрейт : щ8
Ширина : 1208 пикселей
Высота : 720 пикселей
Соотношение сторон : 1,678
Режим частоты кадров : Постоянный
Частота кадров : 24,000 кадра/сек
Цветовое пространство : YUV
Субдискретизация насыщенности : 4:2:0
Битовая глубина : 8 бит
Тип развёртки : Прогрессивная
Бит/(Пиксели*Кадры) : 0.416
Размер потока : 58,8 Мбайт (83%)
Заголовок : Release for HDCLUB
Язык : French
Default : Да
Forced : Нет
Аудио #1
Идентификатор : 2
Формат : DTS
Формат/Информация : Digital Theater Systems
Режим : 16
Параметр Endianness формата : Big
Идентификатор кодека : A_DTS
Продолжительность : 56 с.
Вид битрейта : Постоянный
Битрейт : 755 Кбит/сек
Каналы : 2 канала
Расположение каналов : Front: L R
Частота : 48,0 КГц
Битовая глубина : 24 бит
Метод сжатия : С потерями
Задержка видео : 6 мс.
Размер потока : 5,11 Мбайт (7%)
Заголовок : DTS 2.0 768k Mnogogoloska R5
Язык : Russian
Default : Да
Forced : Нет
Аудио #2
Идентификатор : 3
Формат : DTS
Формат/Информация : Digital Theater Systems
Режим : 16
Параметр Endianness формата : Big
Идентификатор кодека : A_DTS
Продолжительность : 56 с.
Вид битрейта : Постоянный
Битрейт : 768 Кбит/сек
Каналы : 2 канала
Расположение каналов : Front: L R
Частота : 48,0 КГц
Битовая глубина : 24 бит
Метод сжатия : С потерями
Задержка видео : 6 мс.
Размер потока : 5,20 Мбайт (7%)
Заголовок : DTS 2.0 768k (core)
Язык : French
Default : Нет
Forced : Нет
Текст #1
Идентификатор : 4
Формат : UTF-8
Идентификатор кодека : S_TEXT/UTF8
Идентификатор кодека/Информация : UTF-8 Plain Text
Язык : Russian
Default : Нет
Forced : Нет
Текст #2
Идентификатор : 5
Формат : ASS
Идентификатор кодека : S_TEXT/ASS
Идентификатор кодека/Информация : Advanced Sub Station Alpha
Метод сжатия : Без потерь
Язык : English
Default : Да
Forced : Нет
Скриншоты:
         
Время раздачи: 24/7
Вне форума [Профиль] [ЛС]
Похожие темы
Форум Тема Автор Торрент Отв. Посл. сообщение
./templates/default/images/folder_dl.gif Детская литература Пьердоменико Баккаларио | Книжная серия "Секретные дневники Улисса Мура" (12 книг) [2010-2013] [FB2] sashau
1 | 0

0 | 857

4

2013-06-23 14:57
sashau Последнее
./templates/default/images/folder_dl.gif Манга Hun, Park Hyeong Jun, Song Rae Hyeon - Жизнь как цветок / Living Like a Flower / Mamonde [web, manhwa] [главы 1-7] [2013 г., романтика, комедия, повседневность] [incomplete] Omen
0 | 1

0 | 329

0

2015-12-14 03:02
Omen Последнее
./templates/default/images/folder_dl.gif Сатира, Юмор Евгений ЧеширКо | Дневник Домового (2015) [FB2] [email protected]
1 | 0

0 | 1322

4

2016-11-10 18:34
[email protected] Последнее
./templates/default/images/folder_dl.gif Сатира, Юмор Евгений ЧеширКо | Дневник Домового. Рассказы с чердака (2016) [FB2] [email protected]
1 | 0

0 | 1328

1

2016-11-10 18:34
[email protected] Последнее
Показать сообщения:    
Ответить на тему

Текущее время: Сегодня 20:21

Часовой пояс: GMT + 3



Вы не можете начинать темы
Вы не можете отвечать на сообщения
Вы не можете редактировать свои сообщения
Вы не можете удалять свои сообщения
Вы не можете голосовать в опросах
Вы не можете прикреплять файлы к сообщениям
Вы не можете скачивать файлы