Сегодня идет свободное скачивание без начисления Download

Добрые сердца и короны / Kind Hearts and Coronets (1949) [720p] BDRip

Ответить на тему
 
Автор
Сообщение

UndegraundMen ®

Стаж: 3 года 9 месяцев

Сообщений: 28329

Торрент-статистика

Пост 05-Мар-2013 05:20

[Цитировать]

Добрые сердца и короны / Kind Hearts and Coronets (1949) [720p] BDRip - «He chopped down the family tree...» - Русское название: Добрые сердца и короны
Оригинальное название: Kind Hearts and Coronets
Страна: Великобритания
Год выпуска: 1949
Жанр: драма, мелодрама, комедия, криминал
Описание фильма:
1902-ой год. Несправедливо обвинённый в убийстве дальнего родственника английский пэр Луис Маццини, герцог Шелфонтский, сидит в тюрьме и пишет откровенные мемуары...
Режиссер: Роберт Хеймер
Актеры: Деннис Прайс, Валери Хобсон, Джоан Гринвуд, Алек Гиннесс, Одри Филдс, Майлз Маллесон, Клайв Мортон, Джон Пенроуз, Сесил Рэмэдж, Хью Гриффит
Продолжительность: 01:46:10
Перевод: Многоголосый закадровый, Одноголосый закадровый
Субтитры: Английские
при поддержке SNAUTS
Дата мировой премьеры: 21 июня 1949
Видеокодек: MPEG-4 AVC
Битрейт видео: ~7424 kbps
Размер кадра: 948x720
Качество видео: BDRip
Аудио:
1. Dolby Digital Русский 2.0 48 kHz 256 kbps (Многоголосый закадровый - Рен-ТВ)
2. Dolby Digital Русский 2.0 48 kHz 192 kbps (Одноголосый закадровый - Ю.Медведев)
3. FLCA Английский 2.0 48 kHz 547 kbps 24-bit
4. FLCA Английский 2.0 48 kHz 324 kbps 16-bit (Commentary by Peter Bradshaw)

Доп. информация

• Сохранены оригинальные чаптеры как на Blu-ray.
• За звук Рен-ТВ спасибо palmeiras, за его синхронизацию - ghoulie.
• Исходный диск приобретен в рамках "Копилка: Помоги с Blu-ray". Благодарим: gelom, Bulfrogg, NickAlex, serg702, khapev2, Silverbeast, Кириллка, Acoustic, MDV, Natali59, tatkhmeln, snauts, Artyom82, Andy_Ko, av161955, jankusto, Ill415, moses, evg1976, lexus_08 и в особенности DimaJF.

Награды и номинации

Британская академия, 1950 год
Номинации (1):
• Лучший британский фильм
Венецианский кинофестиваль, 1949 год
Номинации (1):
• Золотой лев

MediaInfo

General
Complete name : O:\Kind.Hearts.and.Coronets.1949.720p.BluRay.2С…Rus.2xEng.HDCLUB.mkv
Format : Matroska
File size : 6.60 GiB
Duration : 1h 46mn
Overall bit rate : 8 898 Kbps
Encoded date : UTC 2012-06-11 19:51:00
Writing application : mkvmerge v3.4.0 ('Rapunzel') сборка от May 15 2010 09:38:20
Writing library : libebml v0.8.0 + libmatroska v0.9.0
Video
ID : 1
Format : AVC
Format/Info : Advanced Video Codec
Format profile : [url=mailto:[email protected]][email protected][/url]
Format settings, CABAC : Yes
Format settings, ReFrames : 12 frames
Muxing mode : Container [email protected]
Codec ID : V_MPEG4/ISO/AVC
Duration : 1h 46mn
Width : 948 pixels
Height : 720 pixels
Display aspect ratio : 4:3
Frame rate : 23.976 fps
Resolution : 24 bits
Colorimetry : 4:2:0
Scan type : Progressive
Title : Kind Hearts and Coronets (1949)
Writing library : x264 core 122 r2184 5c85e0a
Encoding settings : cabac=1 / ref=12 / deblock=1:-3:-3 / analyse=0x3:0x113 / me=tesa / subme=11 / psy=1 / psy_rd=1.13:0.00 / mixed_ref=1 / me_range=16 / chroma_me=1 / trellis=2 / 8x8dct=1 / cqm=0 / deadzone=21,11 / fast_pskip=0 / chroma_qp_offset=-2 / threads=12 / sliced_threads=0 / nr=0 / decimate=0 / interlaced=0 / bluray_compat=0 / constrained_intra=0 / bframes=7 / b_pyramid=2 / b_adapt=2 / b_bias=0 / direct=3 / weightb=1 / open_gop=0 / weightp=2 / keyint=250 / keyint_min=23 / scenecut=40 / intra_refresh=0 / rc=crf / mbtree=0 / crf=15.9 / qcomp=0.65 / qpmin=0 / qpmax=69 / qpstep=4 / ip_ratio=1.40 / pb_ratio=1.30 / aq=1:0.72
Language : English
Audio #1
ID : 2
Format : AC-3
Format/Info : Audio Coding 3
Codec ID : A_AC3
Duration : 1h 46mn
Bit rate mode : Constant
Bit rate : 256 Kbps
Channel(s) : 2 channels
Channel positions : L R
Sampling rate : 48.0 KHz
Stream size : 194 MiB (3%)
Title : AC3 2.0 @ 256 kbps - Многоголосый закадровый, Рен-ТВ
Language : Russian
Audio #2
ID : 3
Format : AC-3
Format/Info : Audio Coding 3
Codec ID : A_AC3
Duration : 1h 46mn
Bit rate mode : Constant
Bit rate : 192 Kbps
Channel(s) : 2 channels
Channel positions : L R
Sampling rate : 48.0 KHz
Stream size : 146 MiB (2%)
Title : AC3 2.0 @ 192 kbps - Одноголосый закадровый, Ю.Медведев
Language : Russian
Audio #3
ID : 4
Format : FLAC
Format/Info : Free Lossless Audio Codec
Codec ID : A_FLAC
Duration : 1h 46mn
Bit rate mode : Variable
Channel(s) : 2 channels
Sampling rate : 48.0 KHz
Resolution : 24 bits
Title : FLAC 2.0 @ 547 kbps
Writing library : libFLAC 1.2.1 (UTC 2007-09-17)
Language : English
Audio #4
ID : 5
Format : FLAC
Format/Info : Free Lossless Audio Codec
Codec ID : A_FLAC
Duration : 1h 46mn
Bit rate mode : Variable
Channel(s) : 2 channels
Sampling rate : 48.0 KHz
Resolution : 16 bits
Title : Commentary by Peter Bradshaw
Writing library : libFLAC 1.2.1 (UTC 2007-09-17)
Language : English
Text
ID : 6
Format : UTF-8
Codec ID : S_TEXT/UTF8
Codec ID/Info : UTF-8 Plain Text
Language : English
Menu
00:00:00.000 : en:00:00:00.000
00:10:52.527 : en:00:10:52.527
00:17:12.907 : en:00:17:12.907
00:24:06.320 : en:00:24:06.320
00:31:37.270 : en:00:31:37.270
00:45:09.373 : en:00:45:09.373
00:56:33.515 : en:00:56:33.515
01:07:28.419 : en:01:07:28.419
01:19:10.829 : en:01:19:10.829
01:26:19.049 : en:01:26:19.049
01:37:11.534 : en:01:37:11.534
01:42:45.534 : en:01:42:45.534
Скриншоты:
-Не забываем говорить спасибо, Вам не сложно, а мне приятно)))
Прошу с раздачи не уходить! Скачал сам, дай и другим скачать!!!
Приятного просмотра)))
Вне форума [Профиль] [ЛС]
Похожие темы
Форум Тема Автор Торрент Отв. Посл. сообщение
./templates/default/images/folder_dl.gif Обучающее видео Сергей Добрый | 3DS Max - Editable Poly (2015) PCRec Omen
1 | 0

0 | 237

3

2015-02-01 21:41
Omen Последнее
Показать сообщения:    
Ответить на тему

Текущее время: Сегодня 01:13

Часовой пояс: GMT + 3



Вы не можете начинать темы
Вы не можете отвечать на сообщения
Вы не можете редактировать свои сообщения
Вы не можете удалять свои сообщения
Вы не можете голосовать в опросах
Вы не можете прикреплять файлы к сообщениям
Вы не можете скачивать файлы