Сегодня идет свободное скачивание без начисления Download

На Ярком Солнце / Plein Soleil (1960) BDRip

Ответить на тему
 
Автор
Сообщение

UndegraundMen ®

Стаж: 3 года 9 месяцев

Сообщений: 28329

Торрент-статистика

Пост 06-Мар-2013 08:58

[Цитировать]

На Ярком Солнце / Plein Soleil от R.G. Shadoof- Русское название: На Ярком Солнце
Оригинальное название: Plein Soleil
Год выпуска: 1960
Производство: Франция, Италия
Жанр: триллер, драма, криминал
Перевод: Профессиональный (Многоголосый закадровый, FilmPrestige)
Субтитры: русские (полные, отдельно)-Релиз группы: R.G. Shadoof
Автор рипа : What You Gonna Do ?
-Режиссер: Рене Клеман
В ролях: Ален Делон, Мари Лафоре, Морис Роне, Эрно Криза, Фрэнк Латимор, Билли Кирнс, Аве Нинки, Вивиан Шантель, Нерио Бернарди, Барбель Фанже- -Описание фильма: Огромный счет в банке, красивые женщины, яхта, ласковое море - это сладкая жизнь, которую Том Рипли так хочет иметь и которая у Филиппа Гринлифа уже есть. Филипп даже не подозревает, на что готов пойти Том, чтобы сделать его жизнь своей.
Сначала убийство, потом подделка документов, подписи, голоса... И бедный авантюрист превращается в миллионера. Но даже самая искусная подделка всегда остается лишь копией, даже если над ней трудился талантливый мистер Рипли.
-Исходник: На ярком солнце / Plein soleil (1960) Blu-ray 1080p AVC DTS-HD MA 1.0
Продолжительность: 01:58:40
Качество видео: BDRip
Видеокодек: XviD
Битрейт видео: ~1845 kbps
Размер кадра: 720x432
Аудио #1: 48 kHz, AC3 Dolby Digital, 1/0 (C) ch, ~384 kbps (Многоголосый закадровый, FilmPrestige)
Аудио #2: 48 kHz, AC3 Dolby Digital, 1/0 (C) ch, ~384 kbps (Оригинал)
Аудио #3: 48 kHz, AC3 Dolby Digital, 2/0 (L, R) ch, ~192 kbps (Многоголосый закадровый, "Останкино") (отдельно)
Аудио #4: 48 kHz, AC3 Dolby Digital, 2/0 (L, R) ch, ~192 kbps (Многоголосый закадровый, "ОРТ") (отдельно)
Аудио #5: 48 kHz, AC3 Dolby Digital, 2/0 (L, R) ch, ~192 kbps (Многоголосый закадровый, "Петербург, 5й канал") (отдельно)
Аудио #6: 48 kHz, AC3 Dolby Digital, 2/0 (L, R) ch, ~192 kbps (Многоголосый закадровый, канал "Культура") (отдельно)
Аудио #7: 48 kHz, AC3 Dolby Digital, 2/0 (L, R) ch, ~192 kbps (Одноголосый закадровый, А.Гаврилов) (отдельно)
-

MediaInfo

Код:
Общее
Полное имя                               : C:\Users\iCrab\Documents\HARDWORK\Plein.soleil.1960.BDRip.XviD.AC3~R.G. Shadoof\Plein.soleil.1960.RUS.FRE.BDRip.XviD.AC3~R.G. Shadoof.avi
Формат                                   : AVI
Формат/Информация                        : Audio Video Interleave
Профиль формата                          : OpenDML
Размер файла                             : 2,18 Гбайт
Продолжительность                        : 1 ч. 58 м.
Общий поток                              : 2631 Кбит/сек
Название фильма                          : На ярком солнце / Plein soleil (1960)
Режиссёр                                 : iCrab
Программа кодирования                    : VirtualDubMod 1.5.10.2 (build 2540/release)
Правообладатель                          : R.G. Shadoof
Примечание                               : 05.02.2013
Видео
Идентификатор                            : 0
Формат                                   : MPEG-4 Visual
Профиль формата                          : Advanced [email protected]
Параметр BVOP формата                    : 1
Параметр QPel формата                    : Нет
Параметр GMC формата                     : Без точки перехода
Параметр матрицы формата                 : Выборочная
Идентификатор кодека                     : XVID
Идентификатор кодека/Подсказка           : XviD
Продолжительность                        : 1 ч. 58 м.
Битрейт                                  : 1845 Кбит/сек
Ширина                                   : 720 пикселей
Высота                                   : 432 пикселя
Соотношение сторон                       : 1,667
Частота кадров                           : 23,976 кадра/сек
Цветовое пространство                    : YUV
Субдискретизация насыщенности            : 4:2:0
Битовая глубина                          : 8 бит
Тип развёртки                            : Прогрессивная
Метод сжатия                             : С потерями
Бит/(Пиксели*Кадры)                      : 0.247
Размер потока                            : 1,53 Гбайт (70%)
Библиотека кодирования                   : XviD 64
Аудио #1
Идентификатор                            : 1
Формат                                   : AC-3
Формат/Информация                        : Audio Coding 3
Расширение режима                        : CM (complete main)
Параметр Endianness формата              : Big
Идентификатор кодека                     : 2000
Продолжительность                        : 1 ч. 58 м.
Вид битрейта                             : Постоянный
Битрейт                                  : 384 Кбит/сек
Каналы                                   : 1 канал
Расположение каналов                     : Front: C
Частота                                  : 48,0 КГц
Битовая глубина                          : 16 бит
Метод сжатия                             : С потерями
Размер потока                            : 326 Мбайт (15%)
Выравнивание                             : Разделение по промежуткам
Продолжительность промежутка             : 42  мс. (1,00 видеокадр)
Время предзагрузки промежутка            : 500  мс.
Аудио #2
Идентификатор                            : 2
Формат                                   : AC-3
Формат/Информация                        : Audio Coding 3
Расширение режима                        : CM (complete main)
Параметр Endianness формата              : Big
Идентификатор кодека                     : 2000
Продолжительность                        : 1 ч. 58 м.
Вид битрейта                             : Постоянный
Битрейт                                  : 384 Кбит/сек
Каналы                                   : 1 канал
Расположение каналов                     : Front: C
Частота                                  : 48,0 КГц
Битовая глубина                          : 16 бит
Метод сжатия                             : С потерями
Размер потока                            : 326 Мбайт (15%)
Выравнивание                             : Разделение по промежуткам
Продолжительность промежутка             : 42  мс. (1,00 видеокадр)
Время предзагрузки промежутка            : 500  мс.
- - --
Вне форума [Профиль] [ЛС]
Показать сообщения:    
Ответить на тему

Текущее время: Сегодня 08:53

Часовой пояс: GMT + 3



Вы не можете начинать темы
Вы не можете отвечать на сообщения
Вы не можете редактировать свои сообщения
Вы не можете удалять свои сообщения
Вы не можете голосовать в опросах
Вы не можете прикреплять файлы к сообщениям
Вы не можете скачивать файлы