Сегодня идет свободное скачивание без начисления Download

Пуля для генерала / El chuncho, quien sabe? (1966) [H.264] BDRip

Ответить на тему
 
Автор
Сообщение

UndegraundMen ®

Стаж: 3 года 9 месяцев

Сообщений: 28329

Торрент-статистика

Пост 06-Мар-2013 08:58

[Цитировать]

Пуля для генерала / El chuncho, quien sabe? (1966) [H.264] BDRip Русское название: Пуля для генерала
Оригинальное название: El chuncho, quien sabe?
Год выпуска: 1966
Жанр: Вестерн
Описание фильма: Мексика, начало XX века. Идет гражданская война всех против всех. Одни борются за свободу своей страны, другие — защищают свою власть, третьи — просто занимаются разбоем. Молодой элегантный американец приезжает в залитую кровью страну, идеально подходящую для его целей: быстро разбогатеть. Он внедряется в одну из банд, промышляющую торговлей оружием.
Он завоевывает доверие и восхищение прошедших огонь и воду повстанцев. Но только зачем он повсюду носит с собой как талисман винтовочный патрон с отлитой из золота пулей?
Режиссер: Дамиано Дамиани
Актеры: Джан Мария Волонте, Клаус Кински, Мартин Бесвик, Лу Кастель, Хайме Фернандес, Андреа Кекки, Спартако Конверси, Хоакин Парра, Альдо Самбрелл, Хосе Мануэль Мартин и другие
Продолжительность: 01:57:48
Перевод: Дублированный (C вставками MVO от 5 канала СПб), Профессиональный (многоголосый закадровый) | 5 канал СПб, Профессиональный (многоголосый закадровый) | DVD Магия

Дата мировой премьеры: 7 декабря 1966
Видеокодек: MPEG-4 AVC/H.264
Битрейт видео: ~1883 kbps
Размер кадра: 1024x432
Качество видео: [H.264] BDRip
Аудио #1: 48 kHz, AC3 Dolby Digital, 2 ch, ~192.00 kbps (Дубляж)
Аудио #2: 48 kHz, AC3 Dolby Digital, 2 ch, ~192.00 kbps (Многоголосый 5 канал СПб)
Аудио #3: 48 kHz, AC3 Dolby Digital, 2 ch, ~192.00 kbps (Многоголосый DVD Магия)
Аудио #4: 48 kHz, AC3 Dolby Digital, 2 ch, ~192.00 kbps (Оригинал - Английский)
&

MediaInfo

Общее
Уникальный идентификатор : 194285544123433975960276560066337532793 (0x922A08E3564C670A82A13173A47B6B79)
Полное имя : F:\Роздачи\A Bullet for the General.1966.BDRip-AVC.mkv
Формат : Matroska
Версия формата : Version 4 / Version 2
Размер файла : 2,18 Гбайт
Продолжительность : 1 ч. 57 м.
Общий поток : 2653 Кбит/сек
Название фильма : Пуля для генерала / A Bullet for the General (1966) BDRip-AVC
Дата кодирования : UTC 2013-03-05 08:48:57
Программа кодирования : mkvmerge v6.1.0 ('Old Devil') built on Mar 2 2013 14:32:37
Библиотека кодирования : libebml v1.3.0 + libmatroska v1.4.0
Видео
Идентификатор : 1
Формат : AVC
Формат/Информация : Advanced Video Codec
Профиль формата : [url=mailto:[email protected]][email protected][/url]
Параметр CABAC формата : Да
Параметр ReFrames формата : 12 кадров
Идентификатор кодека : V_MPEG4/ISO/AVC
Продолжительность : 1 ч. 57 м.
Битрейт : 1883 Кбит/сек
Ширина : 1024 пикселя
Высота : 432 пикселя
Соотношение сторон : 2,40:1
Режим частоты кадров : Постоянный
Частота кадров : 23,976 кадра/сек
Цветовое пространство : YUV
Субдискретизация насыщенности : 4:2:0
Битовая глубина : 8 бит
Тип развёртки : Прогрессивная
Бит/(Пиксели*Кадры) : 0.178
Размер потока : 1,51 Гбайт (69%)
Библиотека кодирования : x264 core 130 r2273 b3065e6
Настройки программы : cabac=1 / ref=12 / deblock=1:-3:-3 / analyse=0x3:0x133 / me=umh / subme=11 / psy=1 / psy_rd=1.30:0.50 / mixed_ref=1 / me_range=32 / chroma_me=1 / trellis=2 / 8x8dct=1 / cqm=0 / deadzone=21,11 / fast_pskip=0 / chroma_qp_offset=-4 / threads=13 / lookahead_threads=3 / sliced_threads=0 / nr=0 / decimate=1 / interlaced=0 / bluray_compat=0 / constrained_intra=0 / bframes=10 / b_pyramid=2 / b_adapt=2 / b_bias=0 / direct=3 / weightb=1 / open_gop=0 / weightp=2 / keyint=240 / keyint_min=22 / scenecut=40 / intra_refresh=0 / rc_lookahead=40 / rc=2pass / mbtree=1 / bitrate=1883 / ratetol=1.0 / qcomp=0.60 / qpmin=0 / qpmax=69 / qpstep=4 / cplxblur=20.0 / qblur=0.5 / ip_ratio=1.40 / aq=1:1.00
Default : Да
Forced : Нет
Аудио #1
Идентификатор : 2
Формат : AC-3
Формат/Информация : Audio Coding 3
Профиль формата : Dolby Digital
Расширение режима : CM (complete main)
Параметр Endianness формата : Big
Идентификатор кодека : A_AC3
Продолжительность : 1 ч. 57 м.
Вид битрейта : Постоянный
Битрейт : 192 Кбит/сек
Каналы : 2 канала
Расположение каналов : Front: L R
Частота : 48,0 КГц
Битовая глубина : 16 бит
Метод сжатия : С потерями
Размер потока : 162 Мбайт (7%)
Заголовок : Дублированный (C вставками MVO от 5 канала СПб)
Язык : Russian
Default : Да
Forced : Нет
Аудио #2
Идентификатор : 3
Формат : AC-3
Формат/Информация : Audio Coding 3
Профиль формата : Dolby Digital
Расширение режима : CM (complete main)
Параметр Endianness формата : Big
Идентификатор кодека : A_AC3
Продолжительность : 1 ч. 57 м.
Вид битрейта : Постоянный
Битрейт : 192 Кбит/сек
Каналы : 2 канала
Расположение каналов : Front: L R
Частота : 48,0 КГц
Битовая глубина : 16 бит
Метод сжатия : С потерями
Размер потока : 162 Мбайт (7%)
Заголовок : Профессиональный (многоголосый закадровый) | 5 канал СПб
Язык : Russian
Default : Нет
Forced : Нет
Аудио #3
Идентификатор : 4
Формат : AC-3
Формат/Информация : Audio Coding 3
Расширение режима : CM (complete main)
Параметр Endianness формата : Big
Идентификатор кодека : A_AC3
Продолжительность : 1 ч. 57 м.
Вид битрейта : Постоянный
Битрейт : 192 Кбит/сек
Каналы : 2 канала
Расположение каналов : Front: L R
Частота : 48,0 КГц
Битовая глубина : 16 бит
Метод сжатия : С потерями
Размер потока : 162 Мбайт (7%)
Заголовок : Профессиональный (многоголосый закадровый) | DVD Магия
Язык : Russian
Default : Нет
Forced : Нет
Аудио #4
Идентификатор : 5
Формат : AC-3
Формат/Информация : Audio Coding 3
Расширение режима : CM (complete main)
Параметр Endianness формата : Big
Идентификатор кодека : A_AC3
Продолжительность : 1 ч. 57 м.
Вид битрейта : Постоянный
Битрейт : 192 Кбит/сек
Каналы : 2 канала
Расположение каналов : Front: L R
Частота : 48,0 КГц
Битовая глубина : 16 бит
Метод сжатия : С потерями
Размер потока : 162 Мбайт (7%)
Заголовок : Оригинал
Язык : English
Default : Нет
Forced : Нет
Скриншоты:
           
Время раздачи: с 8:00 до 23:00
Вне форума [Профиль] [ЛС]
Показать сообщения:    
Ответить на тему

Текущее время: Сегодня 08:55

Часовой пояс: GMT + 3



Вы не можете начинать темы
Вы не можете отвечать на сообщения
Вы не можете редактировать свои сообщения
Вы не можете удалять свои сообщения
Вы не можете голосовать в опросах
Вы не можете прикреплять файлы к сообщениям
Вы не можете скачивать файлы