Сегодня идет свободное скачивание без начисления Download

Неприкаянные / The Misfits (1961) [720p] BDRip

Ответить на тему
 
Автор
Сообщение

UndegraundMen ®

Стаж: 3 года 9 месяцев

Сообщений: 28329

Торрент-статистика

Пост 08-Мар-2013 00:33

[Цитировать]

Неприкаянные / The Misfits (1961) [720p] BDRip
- «'SMASHING' thru the Excitement Barrier !» - Русское название: Неприкаянные
Оригинальное название: The Misfits
Страна: США
Год выпуска: 1961
Жанр: драма, мелодрама, вестерн
Описание фильма:
Соблазнительная и печальная, Розлин специально приехала в городок Рино, чтобы развестись с мужем. В местном баре Розлин и ее приятельница Изабель - неунывающая дамочка преклонных «средних лет», специалистка по разводам - знакомятся с двумя ковбоями.
Гэй и Гвидс - мужчины с большим жизненным опытом тоже одинокие и неприкаянные. Они странствуют по Неваде в поисках случайного заработка, и горячий ветер пустыни, суровая мужская дружба, тяга к виски, мальчишеская влюбленность в родео и недостроенный домик вдалеке от города - это все, что у них есть.
Богатством, которым ковбои обладают, они готовы поделиться с Розлин, которая ищет верности и настоящего человеческого тепла. Странная компания и присоединившийся к ним неудачливый ковбой Пирс отправляются в горы на ранчо, чтобы «как встарые добрые времена» объезжать диких невадских мустангов...
Режиссер: Джон Хьюстон
Актеры: Кларк Гейбл, Мэрилин Монро, Монтгомери Клифт, Тельма Риттер, Эли Уоллах, Джеймс Бартон, Кевин МакКарти, Эстель Уинвуд, Фрэнк Фанелли ст., Пегги Бартон
Продолжительность: 02:04:56
Перевод: Многоголосый закадровый, Двухголосый закадровый, Одноголосый закадровый
Субтитры: Английский, Голландский, Французский, Немецкий, Итальянский, Японский, Португальский, Испанский

Дата мировой премьеры: 1 февраля 1961
Видеокодек: MPEG-4 AVC
Битрейт видео: ~9500 Kbps
Размер кадра: 1200x720
Качество видео: BDRip
Аудио:
1. Dolby Digital Русский 2.0 48 kHz 192 kbps (Многоголосый закадровый - DVD Магия)
2. Dolby Digital Русский 2.0 48 kHz 192 kbps (Двухголосый закадровый - НТВ+)
3. Dolby Digital Русский 2.0 48 kHz 192 kbps (Многоголосый закадровый - Светла)
4. Dolby Digital Русский 2.0 48 kHz 192 kbps (Одноголосый закадровый)
5. FLAC Английский 2.0 48 kHz 674 kbps 24-bit

Знаете ли вы, что...

• В последний день съемок Кларк Гейбл заявил: 'Боже Иисусе! Я счастлив, что этот фильм наконец-то отснят. Она [Монро] довела меня до сердечного приступа'. На следующий день Гейбл получил инфаркт миокарда и спустя 11 дней умер.
• Джон Хьюстон заработал 250 долларов, сняв себя в эпизодической роли.
• За Мэрилин Монро и Монтгомери Клифтом на протяжении съемок приглядывал доктор — 24 часа в сутки!
• «Неприкаянные» были написаны Артуром Миллером как короткая история, пока он ждал собственного развода в Рино, перед свадьбой с Мэрилин Монро.

MediaInfo

General
Complete name : F:\The.Misfits.1961.720p.Bluray.4xRus.Eng.ac3.flac.HDCLUB.mkv
Format : Matroska
File size : 9,55 Gib
Duration : 2h 4mn
Overall bit rate : 12,2 Mbps
Movie name : The Misfits (1961) (DON/raphaex)
Encoded date : UTC 2013-03-07 16:22:18
Writing application : mkvmerge v6.1.0 ('Old Devil') built on Mar 2 2013 14:32:37
Writing library : libebml v1.3.0 + libmatroska v1.4.0
Video
ID : 1
Format : AVC
Format/Info : Advanced Video Codec
Format profile : [url=mailto:[email protected]][email protected][/url]
Format settings, CABAC : Yes
Format settings, ReFrames : 4 frames
Muxing mode : Container [email protected]
Codec ID : V_MPEG4/ISO/AVC
Duration : 2h 4mn
Nominal bit rate : 9 500 Kbps
Width : 1 200 pixels
Height : 720 pixels
Display aspect ratio : 1.667
Frame rate : 23.976 fps
Resolution : 24 bits
Colorimetry : 4:2:0
Scan type : Progressive
Bits/(Pixel*Frame) : 0.459
Writing library : x264 core 115 r1995 c1e60b9
Encoding settings : cabac=1 / ref=3 / deblock=1:-3:-3 / analyse=0x3:0x133 / me=umh / subme=10 / psy=1 / psy_rd=1.00:0.00 / mixed_ref=1 / me_range=32 / chroma_me=1 / trellis=2 / 8x8dct=1 / cqm=0 / deadzone=21,11 / fast_pskip=0 / chroma_qp_offset=-2 / threads=18 / sliced_threads=0 / nr=0 / decimate=0 / interlaced=0 / bluray_compat=0 / constrained_intra=0 / bframes=7 / b_pyramid=2 / b_adapt=2 / b_bias=0 / direct=3 / weightb=1 / open_gop=0 / weightp=2 / keyint=250 / keyint_min=23 / scenecut=40 / intra_refresh=0 / rc_lookahead=40 / rc=2pass / mbtree=0 / bitrate=9500 / ratetol=1.0 / qcomp=0.65 / qpmin=0 / qpmax=40 / qpstep=4 / cplxblur=20.0 / qblur=0.5 / vbv_maxrate=50000 / vbv_bufsize=50000 / nal_hrd=none / ip_ratio=1.25 / pb_ratio=1.25 / aq=1:0.65
Audio #1
ID : 2
Format : AC-3
Format/Info : Audio Coding 3
Codec ID : A_AC3
Duration : 2h 4mn
Bit rate mode : Constant
Bit rate : 192 Kbps
Channel(s) : 2 channels
Channel positions : L R
Sampling rate : 48.0 KHz
Stream size : 172 MiB
Title : ac3 2.0 @ 192 kbps |Mvo, DVD Magia|
Language : Russian
Audio #2
ID : 3
Format : AC-3
Format/Info : Audio Coding 3
Codec ID : A_AC3
Duration : 2h 4mn
Bit rate mode : Constant
Bit rate : 192 Kbps
Channel(s) : 2 channels
Channel positions : L R
Sampling rate : 48.0 KHz
Stream size : 172 MiB
Title : ac3 2.0 @ 192 kbps |Mvo, NTV+|
Language : Russian
Audio #3
ID : 4
Format : AC-3
Format/Info : Audio Coding 3
Codec ID : A_AC3
Duration : 2h 4mn
Bit rate mode : Constant
Bit rate : 192 Kbps
Channel(s) : 2 channels
Channel positions : L R
Sampling rate : 48.0 KHz
Stream size : 172 MiB
Title : ac3 2.0 @ 192 kbps |Mvo, Svetla|
Language : Russian
Audio #4
ID : 5
Format : AC-3
Format/Info : Audio Coding 3
Codec ID : A_AC3
Duration : 2h 4mn
Bit rate mode : Constant
Bit rate : 192 Kbps
Channel(s) : 2 channels
Channel positions : L R
Sampling rate : 48.0 KHz
Stream size : 172 MiB
Title : ac3 2.0 @ 192 kbps |Avo, Unknown|
Language : Russian
Audio #5
ID : 6
Format : FLAC
Format/Info : Free Lossless Audio Codec
Codec ID : A_FLAC
Duration : 2h 4mn
Bit rate mode : Variable
Channel(s) : 2 channels
Sampling rate : 48.0 KHz
Resolution : 24 bits
Title : flac 2.0 @ 674 kbps
Writing library : libFLAC 1.2.1 (UTC 2007-09-17)
Text #1
ID : 7
Format : UTF-8
Codec ID : S_TEXT/UTF8
Codec ID/Info : UTF-8 Plain Text
Text #2
ID : 8
Format : UTF-8
Codec ID : S_TEXT/UTF8
Codec ID/Info : UTF-8 Plain Text
Language : Italian
Text #3
ID : 9
Format : UTF-8
Codec ID : S_TEXT/UTF8
Codec ID/Info : UTF-8 Plain Text
Language : Portuguese
Text #4
ID : 10
Format : UTF-8
Codec ID : S_TEXT/UTF8
Codec ID/Info : UTF-8 Plain Text
Language : Spanish
Text #5
ID : 11
Format : UTF-8
Codec ID : S_TEXT/UTF8
Codec ID/Info : UTF-8 Plain Text
Language : French
Text #6
ID : 12
Format : UTF-8
Codec ID : S_TEXT/UTF8
Codec ID/Info : UTF-8 Plain Text
Language : German
Text #7
ID : 13
Format : UTF-8
Codec ID : S_TEXT/UTF8
Codec ID/Info : UTF-8 Plain Text
Language : Bulgarian
Text #8
ID : 14
Format : UTF-8
Codec ID : S_TEXT/UTF8
Codec ID/Info : UTF-8 Plain Text
Language : rom
Menu
00:00:00.000 : en:Credits/Separations
00:10:46.563 : en:The Misfits Meet
00:16:33.659 : en:"No Better Place To Be"
00:24:18.457 : en:Dancing In The Desert
00:29:58.505 : en:"Let's Just Live!"
00:39:49.846 : en:"The Gift Of Life"
00:46:25.408 : en:"Natural Born Fool"
00:51:22.538 : en:Bar Bet's On Her
00:57:29.112 : en:Busted Bronco Rider
01:10:49.412 : en:Blind Drunk
01:22:12.094 : en:A Dog-Eat-Dog World
01:30:12.365 : en:Invading God's Country
01:39:59.619 : en:Man vs. Mustang
01:46:35.598 : en:"Three Dead Men"
01:52:52.891 : en:A Battle Of Wills
02:02:00.897 : en:Finding Their Way Home
Скриншоты:
       -
Вне форума [Профиль] [ЛС]
Показать сообщения:    
Ответить на тему

Текущее время: Сегодня 16:42

Часовой пояс: GMT + 3



Вы не можете начинать темы
Вы не можете отвечать на сообщения
Вы не можете редактировать свои сообщения
Вы не можете удалять свои сообщения
Вы не можете голосовать в опросах
Вы не можете прикреплять файлы к сообщениям
Вы не можете скачивать файлы