Сегодня идет свободное скачивание без начисления Download

Ромовый бульвар / Boulevard du Rhum (1971) [H.264] HDRip

Ответить на тему
 
Автор
Сообщение

UndegraundMen ®

Стаж: 3 года 9 месяцев

Сообщений: 28329

Торрент-статистика

Пост 09-Мар-2013 14:03

[Цитировать]

Ромовый бульвар / Boulevard du Rhum (1971) HDRip- Русское название: Ромовый бульвар
Оригинальное название: Boulevard du Rhum
Год выпуска: 1971
Производство: Франция, Италия, Испания
Жанр: Приключения
Режиссер: Робер Энрико
Сценарий: Робер Энрико, Жак Пешераль, Пьер Пелегри
Актеры: Лино Вентура, Бриджит Бардо, Билл Треверс, Клайв Ревилл, Ла Полака, Джесс Хан, Антонио Касас, Андреас Вуцинас, Ги Маршан, Джек Беттс, Роджер Жаке, Марк Эйро, Стефан Фей, Джо Тернер, Робер Ломбар, Анри Черняк и др.
Описание фильма: Эпоха бутлегеров и сухого закона. Корнелиус ван Зелинга занимается рискованным и выгодным снабжением американских любителей спиртного на своем пароходе, курсируя между американским берегом, около которого его поджидают пограничные катера, и карибскими островами. Однажды ему лишь чудом удается спастись… Заработав деньги разновидностью «русской рулетки» он возвращается к своему промыслу, назвав новое свое судно «Дама моего сердца» в честь увиденной им в кинотеатре кинодивы. Кто бы мог подумать, что однажды судьба подарит ему шанс лично объясниться предмету своей любви…

Дата мировой премьеры: 13 октября 1971
Продолжительность: 02:04:47
Перевод: Многоголосый закадровый, профессиональный
Субтитры: Отсутствуют
Видеокодек: MPEG-4 AVC/H.264
Битрейт видео: ~2119 Kbps
Размер кадра: 960x576
Качество видео: HDRip
Аудио #1: AC3 Dolby Digital, 2/0 (L,R) ch, ~192 kbps, 48 kHz (MVO, Русский)
Aудио #2: AC3 Dolby Digital, 2/0 (L,R) ch, ~192 Kbps, 48 kHz (Original, Французский)
-

MediaInfo

Код:
General
Unique ID                                : 190853658062035603538140277327076628786 (0x8F9513D76ABCB302A6F3A1A538799932)
Complete name                            : C:\...\Romovyj.Bulvar.1971.RUS.HDRip.H.264.AC3.Poseydonbond.mkv
Format                                   : Matroska
Format version                           : Version 2
File size                                : 2.18 GiB
Duration                                 : 2h 4mn
Overall bit rate mode                    : Variable
Overall bit rate                         : 2 504 Kbps
Encoded date                             : UTC 2013-03-09 06:16:36
Writing application                      : mkvmerge v5.8.0 ('No Sleep / Pillow') built on Sep  2 2012 15:37:04
Writing library                          : libebml v1.2.3 + libmatroska v1.3.0
Video
ID                                       : 1
Format                                   : AVC
Format/Info                              : Advanced Video Codec
Format profile                           : [url=mailto:[email protected]][email protected][/url]
Format settings, CABAC                   : Yes
Format settings, ReFrames                : 3 frames
Muxing mode                              : Header stripping
Codec ID                                 : V_MPEG4/ISO/AVC
Duration                                 : 2h 4mn
Bit rate mode                            : Variable
Bit rate                                 : 2 119 Kbps
Maximum bit rate                         : 40.0 Mbps
Width                                    : 960 pixels
Height                                   : 576 pixels
Display aspect ratio                     : 1.667
Frame rate mode                          : Constant
Frame rate                               : 24.000 fps
Color space                              : YUV
Chroma subsampling                       : 4:2:0
Bit depth                                : 8 bits
Scan type                                : Progressive
Bits/(Pixel*Frame)                       : 0.160
Stream size                              : 1.80 GiB (83%)
Title                                    : Romovyj.Bulvar.1971.RUS.HDRip.H.264.Poseydonbond
Writing library                          : x264 core 129 r2245 bc13772
Encoding settings                        : cabac=1 / ref=4 / deblock=1:-3:-3 / analyse=0x3:0x133 / me=hex / subme=6 / psy=1 / psy_rd=1.00:0.00 / mixed_ref=1 / me_range=16 / chroma_me=1 / trellis=2 / 8x8dct=1 / cqm=0 / deadzone=21,11 / fast_pskip=1 / chroma_qp_offset=-2 / threads=2 / lookahead_threads=1 / sliced_threads=0 / slices=4 / nr=0 / decimate=1 / interlaced=0 / bluray_compat=0 / constrained_intra=0 / bframes=3 / b_pyramid=1 / b_adapt=2 / b_bias=0 / direct=3 / weightb=1 / open_gop=0 / weightp=2 / keyint=23 / keyint_min=1 / scenecut=40 / intra_refresh=0 / rc_lookahead=23 / rc=2pass / mbtree=1 / bitrate=2119 / ratetol=1.0 / qcomp=0.60 / qpmin=10 / qpmax=51 / qpstep=4 / cplxblur=20.0 / qblur=0.5 / vbv_maxrate=40000 / vbv_bufsize=30000 / nal_hrd=vbr / ip_ratio=1.40 / aq=1:1.00
Language                                 : French
Default                                  : Yes
Forced                                   : No
Audio #1
ID                                       : 2
Format                                   : AC-3
Format/Info                              : Audio Coding 3
Format profile                           : Dolby Digital
Mode extension                           : CM (complete main)
Format settings, Endianness              : Big
Muxing mode                              : Header stripping
Codec ID                                 : A_AC3
Duration                                 : 2h 4mn
Bit rate mode                            : Constant
Bit rate                                 : 192 Kbps
Channel(s)                               : 2 channels
Channel positions                        : Front: L R
Sampling rate                            : 48.0 KHz
Bit depth                                : 16 bits
Compression mode                         : Lossy
Stream size                              : 171 MiB (8%)
Title                                    : AC3 2/0 MVO
Language                                 : Russian
Default                                  : Yes
Forced                                   : No
Audio #2
ID                                       : 3
Format                                   : AC-3
Format/Info                              : Audio Coding 3
Mode extension                           : CM (complete main)
Format settings, Endianness              : Big
Muxing mode                              : Header stripping
Codec ID                                 : A_AC3
Duration                                 : 2h 4mn
Bit rate mode                            : Constant
Bit rate                                 : 192 Kbps
Channel(s)                               : 2 channels
Channel positions                        : Front: L R
Sampling rate                            : 48.0 KHz
Bit depth                                : 16 bits
Compression mode                         : Lossy
Stream size                              : 171 MiB (8%)
Title                                    : AC3 2/0 Original
Language                                 : French
Default                                  : No
Forced                                   : No
-Скриншоты:
         
-

Ещё скриншоты:

         
-Время раздачи: Круглосуточно (до первых сидов, далее по возможности)
Вне форума [Профиль] [ЛС]
Показать сообщения:    
Ответить на тему

Текущее время: Сегодня 17:38

Часовой пояс: GMT + 3



Вы не можете начинать темы
Вы не можете отвечать на сообщения
Вы не можете редактировать свои сообщения
Вы не можете удалять свои сообщения
Вы не можете голосовать в опросах
Вы не можете прикреплять файлы к сообщениям
Вы не можете скачивать файлы