Сегодня идет свободное скачивание без начисления Download

Непрощенная / The Unforgiven (1960) DVDRip [H.264]

Ответить на тему
 
Автор
Сообщение

UndegraundMen ®

Стаж: 3 года 9 месяцев

Сообщений: 28329

Торрент-статистика

Пост 09-Мар-2013 21:04

[Цитировать]

Непрощенная / The Unforgiven (1960) DVDRip [H.264] -«A NEW TRIUMPH FROM ACADEMY AWARD WINNER JOHN HUSTON»- Русское название: Непрощенная
Оригинальное название: The Unforgiven
Год выпуска: 1960
Жанр: Драма, Мелодрама, Вестерн
Страна: США
Производство: James Productions Inc.
Описание фильма:
Штат Техас, 50-е годы XIX века. Глава семьи Захария погиб много лет назад от рук индейцев, защищая свой дом и семью. Мать одна воспитала трёх своих сыновей и девочку Рэйчел, чьи родители были убиты индейцами в те лихие дни. Неожиданно индейцы выясняют, что в девушке течёт кровь племени Кайова, и приходят забрать свою соплеменницу.
Испугавшись кровопролития, никто не приходит на помощь осаждённой семье. Братьям с матерью и сестрой приходится одним отражать нападение многочисленного и безжалостного отряда краснокожих. Боевые сцены и захватывающий дух финал никого не оставят равнодушными.
Режиссер: Джон Хьюстон
Сценарий: Бен Мэддоу, Алан Ле Мэй
Продюсер: Харольд Хект, Джеймс Хилл, Берт Ланкастер
Актеры: Берт Ланкастер, Одри Хепберн, Оди Мерфи, Джон Сэксон, Чарльз Бикфорд, Лиллиан Гиш, Альберт Сэлми, Джозеф Уайзмен, Джун Уолкер, Кипп Хэмилтон
Продолжительность: 01:56:26
Перевод: Двуголосый закадровый
Субтитры: Отсутствуют

Дата мировой премьеры: 6 апреля 1960
Видеокодек: MPEG-4 AVC/H.264
Битрейт видео: ~1980 Кбит/сек
Размер кадра: 720x304
Качество видео: DVDRip
Аудиокодек: AC3 2.0
Битрейт аудио: 192 kbps

Реценция с кинопоиска от Murlyka:

На мой взгляд, фильм «Непрощённая» — один из самых динамичных захватывающих вестернов, виденных мной! И один из самых любимых!
Потому что в одном фильме я могу любоваться утонченной Одри и восхищаться мужественным Бертом Ланкастером! Потрясающий дуэт! Великолепная игра! + Интересный небанальный сюжет и драматизм!
Прерии, дикие мустанги, мутная река, злобные индейцы, коварный одноглазый старик, битва в ночи, осада маленького фермерского жилища многочисленным отрядом краснокожих, рояль во дворе и классическая музыка, льющаяся с клавиш за реку, где стоит отряд врагов…
Не может не тронуть за душу трагедия юной девушки, узнавшей правду о своем происхождении и в ту же минуту отвергнутой всем местным обществом и даже одним из тех, кого она считала своим братом. Необходимость сделать очень трудный выбор, с кем ей дальше жить? Либо остаться здесь и бороться до конца со своей семьей, в которой она росла с младенческих лет, и кто скрывал от нее долгие годы тайну… Либо вернуться к тем, кто убил ее отца, но в ком течет ее кровь… И она свой выбор делает.
Образ, созданный Бертом Ланкастером, — самый старший из братьев Захария, Бен. Образ сильный, мощный, мужественный! Он защищает свою семью, отказываясь отдать Рейчел в руки индейцев. Немногословный и способный принять решение. С таким, как он, чувствуешь себя, как за каменной стеной. Великолепный образ! Я даже, признаюсь, в какие-то моменты, тихо завидовала Одри…
В общем, подводя итог, ставлю самую высокую оценку. Ну не могу я разбирать по косточкам и выискивать какие-то промахи в фильме, который мне очень и очень дорог! Вот так.

10 из 10

MediaInfo:

General
Unique ID : 216927364054109675151368600612809629197 (0xA332B0CC662013F58EAFF2CF275E5E0D)
Complete name : H:\Downloads\Непрощенная.mkv
Format : Matroska
Format version : Version 2
File size : 1.77 GiB
Duration : 1h 56mn
Overall bit rate : 2 173 Kbps
Encoded date : UTC 2013-03-07 23:47:58
Writing application : mkvmerge v5.7.0 ('The Whirlwind') built on Jul 29 2012 15:12:35
Writing library : libebml v1.2.3 + libmatroska v1.3.0
Video
ID : 1
Format : AVC
Format/Info : Advanced Video Codec
Format profile : [url=mailto:[email protected]][email protected][/url]
Format settings, CABAC : Yes
Format settings, ReFrames : 8 frames
Muxing mode : Header stripping
Codec ID : V_MPEG4/ISO/AVC
Duration : 1h 56mn
Bit rate : 1 980 Kbps
Width : 720 pixels
Height : 304 pixels
Display aspect ratio : 2.35:1
Frame rate mode : Constant
Frame rate : 25.000 fps
Color space : YUV
Chroma subsampling : 4:2:0
Bit depth : 8 bits
Scan type : Progressive
Bits/(Pixel*Frame) : 0.362
Stream size : 1.58 GiB (89%)
Title : The Unforgiven
Writing library : x264 core 129 r2245 bc13772
Encoding settings : cabac=1 / ref=8 / deblock=1:-1:-1 / analyse=0x3:0x133 / me=umh / subme=9 / psy=1 / psy_rd=1.00:0.15 / mixed_ref=1 / me_range=16 / chroma_me=1 / trellis=2 / 8x8dct=1 / cqm=0 / deadzone=21,11 / fast_pskip=1 / chroma_qp_offset=-3 / threads=6 / lookahead_threads=1 / sliced_threads=0 / nr=0 / decimate=1 / interlaced=0 / bluray_compat=0 / constrained_intra=0 / bframes=3 / b_pyramid=2 / b_adapt=2 / b_bias=0 / direct=3 / weightb=1 / open_gop=0 / weightp=2 / keyint=250 / keyint_min=25 / scenecut=40 / intra_refresh=0 / rc_lookahead=60 / rc=2pass / mbtree=1 / bitrate=1980 / ratetol=1.0 / qcomp=0.60 / qpmin=10 / qpmax=51 / qpstep=4 / cplxblur=20.0 / qblur=0.5 / ip_ratio=1.40 / aq=1:1.00
Language : English
Default : Yes
Forced : No
Audio
ID : 2
Format : AC-3
Format/Info : Audio Coding 3
Mode extension : CM (complete main)
Format settings, Endianness : Big
Muxing mode : Header stripping
Codec ID : A_AC3
Duration : 1h 56mn
Bit rate mode : Constant
Bit rate : 192 Kbps
Channel(s) : 2 channels
Channel positions : Front: L R
Sampling rate : 48.0 KHz
Bit depth : 16 bits
Compression mode : Lossy
Stream size : 160 MiB (9%)
Title : Профессиональный (двухголосый закадровый перевод)
Language : Russian
Default : Yes
Forced : No
Скриншоты:                    
Вне форума [Профиль] [ЛС]
Показать сообщения:    
Ответить на тему

Текущее время: Сегодня 05:12

Часовой пояс: GMT + 3



Вы не можете начинать темы
Вы не можете отвечать на сообщения
Вы не можете редактировать свои сообщения
Вы не можете удалять свои сообщения
Вы не можете голосовать в опросах
Вы не можете прикреплять файлы к сообщениям
Вы не можете скачивать файлы