Сегодня идет свободное скачивание без начисления Download

Зуд седьмого года / The Seven Year Itch (1955) [1080p] BDRip

Ответить на тему
 
Автор
Сообщение

UndegraundMen ®

Стаж: 3 года 9 месяцев

Сообщений: 28329

Торрент-статистика

Пост 10-Мар-2013 22:13

[Цитировать]

Зуд седьмого года / The Seven Year Itch (1955) [1080p] BDRip
- «It TICKLES and TANTALIZES! - The funniest comedy since laughter began!» - Русское название: Зуд седьмого года
Оригинальное название: The Seven Year Itch
Страна: США
Год выпуска: 1955
Жанр: мелодрама, комедия
Описание фильма:
Книгоиздатель Ричард Шерман женат уже семь лет. Его жена и сын в очередной раз уезжают за город на каникулы. Недолго длится одиночество Ричарда, неожиданно на его балкон падает огромный горшок с томатами, и виной этому соседка с верхнего этажа, белокурая рекламная модель.
Ричард предлагает красотке зайти к нему в гости и что-нибудь выпить. Шикарная блондинка в глубоком декольте, не давая соседу опомниться, появляется в его квартире с бутылкой шампанского в руке...
С этой минуты богатое воображение героя рисует не только сказочные картины завоевания сердца соблазнительной красавицы, но и унизительные сцены разоблачения женой его неверности...
Режиссер: Билли Уайлдер
Актеры: Мэрилин Монро, Том Юэлл, Эвелин Кийес, Сонни Тафтс, Роберт Штраусс, Оскар Хомолка, Маргарит Чэпман, Виктор Мур, Долорес Роздейл, Дональд МакБрайд
Продолжительность: 01:44:24
Перевод: Дублированный, Многоголосый закадровый
Субтитры: Английский, Русский, Польские
imdb kinopoisk
Дата мировой премьеры: 3 июня 1955
Дата DVD премьеры: 23 июля 2009, «Двадцатый Век Фокс СНГ»
Видеокодек: MPEG-4 AVC
Битрейт видео: ~13700 kbps
Размер кадра: 1920x752
Качество видео: BDRip
Аудио:
1. DTS Русский 5.1 / 48 kHz / 768 kbps / 24-bit (Дублированный, 20 Век Фокс СНГ)
2. Dolby Digital Русский 2.0 / 48 kHz / 192 kbps (Многоголосый закадровый, SomeWax)
3. Dolby Digital Русский 2.0 / 48 kHz / 192 kbps (Многоголосый закадровый, ОРТ)
4. Dolby Digital Русский 2.0 / 48 kHz / 192 kbps (Многоголосый закадровый, НТВ)
5. DTS Английский 5.1 / 48 kHz / 1509 kbps / 24-bit
6. DTS Английский 5.1 / 48 kHz / 1509 kbps / 16-bit (Isolated Score)
7. Dolby Digital Английский 2.0 / 48 kHz / 224 kbps (Commentary by Author Kevin Lally)

Награды и номинации

Золотой глобус, 1956 год
Победитель (1):
• Лучшая мужская роль (комедия или мюзикл) (Том Юэлл)
Британская академия, 1956 год
Номинации (1):
• Лучшая иностранная актриса (Мэрилин Монро)

Знаете ли вы, что...

• Знаменитый эпизод, в котором внезапный порыв воздуха из вентиляционного люка взметает вверх юбку Мэрилин Монро, первоначально снимался на Манхэттене, на углу 52-й улицы и Лексингтон-авеню, 15 сен¬тября 1954 года в час ночи. 5000 зевак свистели и улюлюкали, когда Монро в очередной раз срывала дубль, забывая слова. Все это происходило на глазах у Джо Ди Маджо, тогдашнего супруга актрисы. Отснятый материал так и не появился в картине, поскольку его нельзя было использовать из-за шума толпы. Режиссер фильма Билли Уайлдер переснял эту сцену в павильоне студии 20th Century Fox. Чтобы добиться нужного результата, ему пришлось сделать еще 40 дублей.
• По иронии судьбы, именно в то время, когда проходили съемки этой кар¬тины, девятимесячный брак Монро и Ди Маджо распался.
• Во время съемок Монро часто ошибалась, путала и забывала слова, из-за чего приходилось делать по несколько десятков дублей. В результате производство картины затянулось, а ее бюджет раздулся до $3.2 млн, до¬вольно большой суммы для того времени.
• Увидев кинопробы Уолтера Мэттау на роль Ричарда Шермана, Билли Уайлдер понял, что нашел нужного ему актера. Однако руководители студии не захотели рисковать - приглашая на главную роль дебютанта. И тогда Уайлдер остановил свой выбор на Томе Юэлле, сыгравшем Шермана в бродвейской постановке пье¬сы Джорджа Аксельрода, положенной в основу фильма.
• Права на экранизацию пьесы приобрела Paramount, но после того, как из этой студии ушел Билли Уайлдер, проект оказался у 20th Century Fox.
• Первым режиссером, которому было предложено снять эту ленту, был Джордж Кьюкор («Газовый свет», «Давай займемся любовью», «Филадельфийская исто-рия», «Моя прекрасная леди»). Но он отказался от этого проекта.

MediaInfo

General
Complete name : F:\Seven Year Itch.1955.BluRay.1080p.4xRus.Eng.dts.ac3.HDCLUB.nmd.mkv
Format : Matroska
File size : 13.6 GiB
Duration : 1h 44mn
Movie name : Seven Year Itch (1955)
Encoded date : UTC 2013-03-09 04:51:35
Writing application : mkvmerge v6.1.0 ('Old Devil') built on Mar 2 2013 14:32:37
Writing library : libebml v1.3.0 + libmatroska v1.4.0
Video
ID : 1
Format : AVC
Format/Info : Advanced Video Codec
Format profile : [url=mailto:[email protected]][email protected][/url]
Format settings, CABAC : Yes
Format settings, ReFrames : 5 frames
Muxing mode : Container [email protected]
Codec ID : V_MPEG4/ISO/AVC
Duration : 1h 44mn
Width : 1 920 pixels
Height : 752 pixels
Display aspect ratio : 2.553
Frame rate : 23.976 fps
Resolution : 24 bits
Colorimetry : 4:2:0
Scan type : Progressive
Writing library : x264 core 129 r2245 bc13772
Encoding settings : cabac=1 / ref=5 / deblock=1:-3:-3 / analyse=0x3:0x133 / me=umh / subme=11 / psy=1 / psy_rd=1.05:0.10 / mixed_ref=1 / me_range=32 / chroma_me=1 / trellis=2 / 8x8dct=1 / cqm=0 / deadzone=21,11 / fast_pskip=0 / chroma_qp_offset=-3 / threads=9 / lookahead_threads=1 / sliced_threads=0 / nr=0 / decimate=1 / interlaced=0 / bluray_compat=0 / constrained_intra=0 / bframes=8 / b_pyramid=2 / b_adapt=2 / b_bias=0 / direct=3 / weightb=1 / open_gop=0 / weightp=2 / keyint=240 / keyint_min=23 / scenecut=40 / intra_refresh=0 / rc=crf / mbtree=0 / crf=16.3 / qcomp=0.60 / qpmin=0 / qpmax=69 / qpstep=4 / ip_ratio=1.40 / pb_ratio=1.30 / aq=1:0.60
colour_primaries : BT.709-5, BT.1361, IEC 61966-2-4, SMPTE RP177
transfer_characteristics : BT.709-5, BT.1361
matrix_coefficients : BT.709-5, BT.1361, IEC 61966-2-4 709, SMPTE RP177
Audio #1
ID : 2
Format : DTS
Format/Info : Digital Theater Systems
Codec ID : A_DTS
Duration : 1h 44mn
Bit rate mode : Constant
Bit rate : 755 Kbps
Channel(s) : 6 channels
Channel positions : Front: L C R, Surround: L R, LFE
Sampling rate : 48.0 KHz
Resolution : 24 bits
Stream size : 563 MiB
Title : dts 5.1 @ 768 kbps |Dub, Fox BDCEE|
Language : Russian
Audio #2
ID : 3
Format : AC-3
Format/Info : Audio Coding 3
Format profile : Dolby Digital
Codec ID : A_AC3
Duration : 1h 44mn
Bit rate mode : Constant
Bit rate : 192 Kbps
Channel(s) : 2 channels
Channel positions : L R
Sampling rate : 48.0 KHz
Stream size : 143 MiB
Title : ac3 2.0 @ 192 kbps |MVO, SomeWax|
Language : Russian
Audio #3
ID : 4
Format : AC-3
Format/Info : Audio Coding 3
Format profile : Dolby Digital
Codec ID : A_AC3
Duration : 1h 44mn
Bit rate mode : Constant
Bit rate : 192 Kbps
Channel(s) : 2 channels
Channel positions : L R
Sampling rate : 48.0 KHz
Stream size : 143 MiB
Title : ac3 2.0 @ 192 kbps |MVO, Ort|
Language : Russian
Audio #4
ID : 5
Format : AC-3
Format/Info : Audio Coding 3
Format profile : Dolby Digital
Codec ID : A_AC3
Duration : 1h 44mn
Bit rate mode : Constant
Bit rate : 192 Kbps
Channel(s) : 2 channels
Channel positions : L R
Sampling rate : 48.0 KHz
Stream size : 143 MiB
Title : ac3 2.0 @ 192 kbps |MVO,Ntv|
Language : Russian
Audio #5
ID : 6
Format : DTS
Format/Info : Digital Theater Systems
Codec ID : A_DTS
Duration : 1h 44mn
Bit rate mode : Constant
Bit rate : 1 510 Kbps
Channel(s) : 6 channels
Channel positions : Front: L C R, Surround: L R, LFE
Sampling rate : 48.0 KHz
Resolution : 24 bits
Stream size : 1.10 GiB
Title : dts 5.1 @ 1509 kbps
Audio #6
ID : 7
Format : DTS
Format/Info : Digital Theater Systems
Codec ID : A_DTS
Duration : 1h 44mn
Bit rate mode : Constant
Bit rate : 1 510 Kbps
Channel(s) : 6 channels
Channel positions : Front: L C R, Surround: L R, LFE
Sampling rate : 48.0 KHz
Resolution : 24 bits
Stream size : 1.10 GiB
Title : dts 5.1 @ 1509 kbps |Isolated Score Track|
Audio #7
ID : 8
Format : AC-3
Format/Info : Audio Coding 3
Codec ID : A_AC3
Duration : 1h 44mn
Bit rate mode : Constant
Bit rate : 224 Kbps
Channel(s) : 2 channels
Channel positions : L R
Sampling rate : 48.0 KHz
Stream size : 167 MiB
Title : ac3 2.0 @ 224 kbps |Commentary by Kevin Lally|
Text #1
ID : 9
Format : UTF-8
Codec ID : S_TEXT/UTF8
Codec ID/Info : UTF-8 Plain Text
Title : BD CEE
Language : Russian
Text #2
ID : 10
Format : UTF-8
Codec ID : S_TEXT/UTF8
Codec ID/Info : UTF-8 Plain Text
Text #3
ID : 11
Format : UTF-8
Codec ID : S_TEXT/UTF8
Codec ID/Info : UTF-8 Plain Text
Language : Polish
Menu
00:00:00.000 : en:Main Titles
00:02:22.642 : en:The Summer Vacation
00:05:29.162 : en:Mr. Sherman
00:10:55.488 : en:The Summer Renter
00:14:01.841 : en:Mr. Sherman's Imagination
00:23:27.031 : en:A Crash Landing
00:28:25.704 : en:Rachmaninoff Reverie
00:31:24.674 : en:Mr. Krihulik
00:33:31.635 : en:The Tomato
00:44:21.868 : en:The Champagne
00:51:52.109 : en:The Piano
00:55:25.322 : en:At the Office
00:58:25.919 : en:The Itch
01:05:02.190 : en:Worst-Case Scenario
01:10:06.869 : en:Abstention
01:13:58.476 : en:At the Movies
01:16:28.584 : en:Air Conditioned
01:25:13.317 : en:The Paddle
01:31:15.679 : en:Guilt
01:35:37.565 : en:Another Opinion
01:38:53.136 : en:Tom MacKenzie
01:42:39.528 : en:The 8:47 Train
Скриншоты:
       -
Вне форума [Профиль] [ЛС]
Показать сообщения:    
Ответить на тему

Текущее время: Сегодня 17:38

Часовой пояс: GMT + 3



Вы не можете начинать темы
Вы не можете отвечать на сообщения
Вы не можете редактировать свои сообщения
Вы не можете удалять свои сообщения
Вы не можете голосовать в опросах
Вы не можете прикреплять файлы к сообщениям
Вы не можете скачивать файлы