Сегодня идет свободное скачивание без начисления Download

Неисправимый / Incorrigible / L\'incorrigible (1975) [720p] WEB-DL

Ответить на тему
 
Автор
Сообщение

UndegraundMen ®

Стаж: 3 года 9 месяцев

Сообщений: 28329

Торрент-статистика

Пост 11-Мар-2013 00:21

[Цитировать]

Неисправимый / Incorrigible / L'incorrigible (1975) [720p] WEB-DL
- - Название: Неисправимый
Оригинальное название: Incorrigible / L'incorrigible
Год выпуска: 1975
Жанр: Комедия
Выпущено: Франция
Описание фильма:
Мошенник высшего разряда, выйдя из тюрьмы, с повышенным энтузиазмом принимается за свое прежнее ремесло. Он продает чужие квартиры, яхты и даже истребители "Мираж" африканским странам. Обаятельнешего пройдоху знает весь Париж, все женщины вешаются ему на шею... Но вот к нему приходит очаровательная женщина, психолог из полиции, которой поручено наблюдать за ним и помочь его адаптации к честной жизни...
Режиссер: Филипп Де Брока
В ролях: Жан-Поль Бельмондо, Женевьев Бюжо, Шарль Жерар, Даниэль Секкальди, Капюсин, Андреа Ферреоль
Продолжительность: 01:39:18
Перевод: Многоголосый закадровый
Субтитры: Русские
IMDB kinopoisk
Рейтинг MPAA: PG 13– лицам до 13 лет обязательное присутствие родителей!!!
Видеокодек: MPEG-4 AVC
Битрейт видео: ~ 4000 kbps
Размер кадра: 1208x720
Качество видео: WEB-DL
Аудио:
1. AC3 Русский 2.0 / 48 kHz / 192 kbps (Многоголосый закадровый, ОРТ)
2. AC3 Русский 2.0 / 48 kHz / 192 kbps (Многоголосый закадровый, Твистер)
3. AAC Французский 2.0 / 48 kHz / 160 kbps

MediaInfo

General
Complete name : F:\WEB\L'Incorrigible.1975.720p.WEB-DL.2xRus.Fre.Sub.HDCLUB.mkv
Format : Matroska
File size : 230 MiB
Duration : 1h 39mn
Overall bit rate : 324 Kbps
Movie name : L'Incorrigible (1975)
Encoded date : UTC 2013-03-10 01:43:58
Writing application : mkvmerge v6.1.0 ('Old Devil') built on Mar 2 2013 14:32:37
Writing library : libebml v1.3.0 + libmatroska v1.4.0
Video
ID : 1
Format : AVC
Format/Info : Advanced Video Codec
Format profile : [url=mailto:[email protected]][email protected][/url]
Format settings, CABAC : No
Format settings, ReFrames : 2 frames
Muxing mode : Container [email protected]
Codec ID : V_MPEG4/ISO/AVC
Duration : 1h 39mn
Width : 1 208 pixels
Height : 720 pixels
Display aspect ratio : 1.678
Frame rate : 24.000 fps
Resolution : 24 bits
Colorimetry : 4:2:0
Scan type : Progressive
Language : French
colour_primaries : BT.709-5, BT.1361, IEC 61966-2-4, SMPTE RP177
transfer_characteristics : BT.709-5, BT.1361
matrix_coefficients : BT.709-5, BT.1361, IEC 61966-2-4 709, SMPTE RP177
Audio #1
ID : 2
Format : AC-3
Format/Info : Audio Coding 3
Format profile : Dolby Digital
Codec ID : A_AC3
Duration : 1h 39mn
Bit rate mode : Constant
Bit rate : 192 Kbps
Channel(s) : 2 channels
Channel positions : L R
Sampling rate : 48.0 KHz
Stream size : 136 MiB (59%)
Title : AC3 48 kHz 2.0 192 kbps MVO ORT
Language : Russian
Audio #2
ID : 3
Format : AC-3
Format/Info : Audio Coding 3
Format profile : Dolby Digital
Codec ID : A_AC3
Duration : 1h 39mn
Bit rate mode : Constant
Bit rate : 192 Kbps
Channel(s) : 2 channels
Channel positions : L R
Sampling rate : 48.0 KHz
Stream size : 136 MiB (59%)
Title : AC3 48 kHz 2.0 192 kbps MVO Twister
Language : Russian
Audio #3
ID : 4
Format : AAC
Format/Info : Advanced Audio Codec
Format version : Version 4
Format profile : LC
Format settings, SBR : No
Codec ID : A_AAC
Duration : 1h 39mn
Channel(s) : 2 channels
Channel positions : L R
Sampling rate : 48.0 KHz
Resolution : 16 bits
Title : AAC 2.0 VBR Original
Language : French
Text
ID : 5
Format : UTF-8
Codec ID : S_TEXT/UTF8
Codec ID/Info : UTF-8 Plain Text
Title : Russian
Language : Russian
Menu
00:00:00.000 : en:Chapitre 1
00:10:37.000 : en:Chapitre 2
00:19:33.000 : en:Chapitre 3
00:30:03.000 : en:Chapitre 4
00:38:59.000 : en:Chapitre 5
00:52:15.000 : en:Chapitre 6
01:00:27.000 : en:Chapitre 7
01:10:47.000 : en:Chapitre 8
01:20:40.000 : en:Chapitre 9
01:30:36.000 : en:Chapitre 10
01:37:53.000 : en:Chapitre 11
Скриншоты:
       -
Вне форума [Профиль] [ЛС]
Похожие темы
Форум Тема Автор Торрент Отв. Посл. сообщение
./templates/default/images/folder_dl.gif Техническая и научно-популярная литература Г-Л.Дэвидсон | Поиск неисправностей и ремонт электронной аппаратуры без схем [2002] [DJVU] UndegraundMen
1 | 0

0 | 671

14

2013-09-07 16:24
UndegraundMen Последнее
./templates/default/images/folder_dl.gif Обучающее видео [Advanced Training] Курс Cisco TSHOOT 2.0 - Поиск и устранение неисправностей в сетях Cisco (Troubleshooting and Maintaining Cisco IP Networks) [2014, RUS] Omen
3 | 0

0 | 1501

197

2015-05-16 12:00
Omen Последнее
Показать сообщения:    
Ответить на тему

Текущее время: Сегодня 00:20

Часовой пояс: GMT + 3



Вы не можете начинать темы
Вы не можете отвечать на сообщения
Вы не можете редактировать свои сообщения
Вы не можете удалять свои сообщения
Вы не можете голосовать в опросах
Вы не можете прикреплять файлы к сообщениям
Вы не можете скачивать файлы