Сегодня идет свободное скачивание без начисления Download

Пепе ле Моко / Pepe le Moko (1937) [720p] WEB-DL

Ответить на тему
 
Автор
Сообщение

UndegraundMen ®

Стаж: 3 года 9 месяцев

Сообщений: 28329

Торрент-статистика

Пост 12-Мар-2013 12:01

[Цитировать]

Пепе ле Моко / Pepe le Moko (1937) [720p] WEB-DL
- - Название: Пепе ле Моко
Оригинальное название: Pepe le Moko
Год выпуска: 1937
Жанр: Драма, мелодрама, криминал
Выпущено: Франция, Paris Film
Описание фильма:
Главарь большой и опытной банды по имени Пепе ле Моко умен, хитер и очень авторитетен среди своих подельников. Но таким людям, как ни странно, надоедает однообразие типа: украл - выпил - в тюрьму. Да еще эта дура Инесс, с которой ужасно надоело жить. Наплевав на опасность и забыв об элементарных правилах нормального вора, Пепе находит себе новую зазнобу - очень стильную и красивую Габи Голд. И нам становится понятно, что этот парень долго не протянет - на «хвосте» у Пепе обнаруживается его старый заклятый «друг» - инспектор полиции Шлиман…
Режиссер: Жюльен Дювивье
В ролях: Жан Габен, Мирей Бален, Лукас Гриду, Лин Норо, Габриэль Габрио, Фернан Шарпен, Жильбер Жиль, Сатюрнен Фабр, Марсель Далио, Шарль Гранваль
Продолжительность: 01:33:51
Перевод: Многоголосый закадровый
Субтитры: нет
imdb / kinopoisk при поддержке SNAUTS
Рейтинг MPAA: PG 13– лицам до 13 лет обязательное присутствие родителей!!!
Видеокодек: MPEG-4 AVC
Битрейт видео: ~ 4000 kbps
Размер кадра: 958x720
Качество видео: WEB-DL
Аудио:
1. AC3 Русский 2.0 / 48 kHz / 192 kbps (Многоголосый закадровый, Film Prestige)
2. AC3 Русский 2.0 / 48 kHz / 192 kbps (Многоголосый закадровый, DVD Магия)
3. AAC Французский 2.0 / 48 kHz / 160 kbps

MediaInfo

General
Complete name : F:\WEB\Pepe.le.Moko.1937.720p.WEB-DL.2xRus.Fre.HDCLUB.mkv
Format : Matroska
Duration : 1h 33mn
Movie name : Pepe le Moko (1937)
Encoded date : UTC 2013-03-10 01:54:55
Writing application : mkvmerge v6.1.0 ('Old Devil') built on Mar 2 2013 14:32:37
Writing library : libebml v1.3.0 + libmatroska v1.4.0
Video
ID : 1
Format : AVC
Format/Info : Advanced Video Codec
Format profile : [url=mailto:[email protected]][email protected][/url]
Format settings, CABAC : No
Format settings, ReFrames : 2 frames
Muxing mode : Container [email protected]
Codec ID : V_MPEG4/ISO/AVC
Duration : 1h 33mn
Width : 958 pixels
Height : 720 pixels
Display aspect ratio : 4:3
Frame rate : 24.000 fps
Resolution : 24 bits
Colorimetry : 4:2:0
Scan type : Progressive
Language : French
colour_primaries : BT.709-5, BT.1361, IEC 61966-2-4, SMPTE RP177
transfer_characteristics : BT.709-5, BT.1361
matrix_coefficients : BT.709-5, BT.1361, IEC 61966-2-4 709, SMPTE RP177
Audio #1
ID : 2
Format : AC-3
Format/Info : Audio Coding 3
Format profile : Dolby Digital
Codec ID : A_AC3
Duration : 1h 33mn
Bit rate mode : Constant
Bit rate : 192 Kbps
Channel(s) : 2 channels
Channel positions : L R
Sampling rate : 48.0 KHz
Stream size : 129 MiB (28%)
Title : AC3 48 kHz 2.0 192 kbps MVO Film Prestige
Language : Russian
Audio #2
ID : 3
Format : AC-3
Format/Info : Audio Coding 3
Format profile : Dolby Digital
Codec ID : A_AC3
Duration : 1h 33mn
Bit rate mode : Constant
Bit rate : 192 Kbps
Channel(s) : 2 channels
Channel positions : L R
Sampling rate : 48.0 KHz
Stream size : 129 MiB (28%)
Title : AC3 48 kHz 2.0 192 kbps MVO DVD Magic
Language : Russian
Audio #3
ID : 4
Format : AAC
Format/Info : Advanced Audio Codec
Format version : Version 4
Format profile : LC
Format settings, SBR : No
Codec ID : A_AAC
Duration : 1h 33mn
Channel(s) : 2 channels
Channel positions : L R
Sampling rate : 48.0 KHz
Resolution : 16 bits
Title : AAC 2.0 VBR Original
Language : French
Menu
00:00:00.000 : en:LA CASBAH
00:06:47.000 : en:DESCENTE DE POLICE
00:14:28.000 : en:LE CAID DES CAIDS
00:20:20.000 : en:SORTIR DE LA CASBAH
00:27:53.000 : en:LA MERE DE PIERROT
00:34:38.000 : en:EN ATTENDANT PIERROT...
00:43:56.000 : en:... RENCONTRE PLACE BLANCHE
00:53:48.000 : en:LE COEUR NOIR
01:00:36.000 : en:COMME SI J'ETAIS A PARIS
01:08:14.000 : en:LE RENDEZ-VOUS
01:16:57.000 : en:LE MESSAGE DE LARBI
01:25:37.000 : en:PEPE S'EN VA
Скриншоты:
       -
Вне форума [Профиль] [ЛС]
Показать сообщения:    
Ответить на тему

Текущее время: Сегодня 20:25

Часовой пояс: GMT + 3



Вы не можете начинать темы
Вы не можете отвечать на сообщения
Вы не можете редактировать свои сообщения
Вы не можете удалять свои сообщения
Вы не можете голосовать в опросах
Вы не можете прикреплять файлы к сообщениям
Вы не можете скачивать файлы