Сегодня идет свободное скачивание без начисления Download

Неприкаянные / The Misfits (1961) [1080p] BDRip

Ответить на тему
 
Автор
Сообщение

UndegraundMen ®

Стаж: 3 года 9 месяцев

Сообщений: 28329

Торрент-статистика

Пост 13-Мар-2013 11:03

[Цитировать]

Неприкаянные / The Misfits (1961) [1080p] BDRip
- «'SMASHING' thru the Excitement Barrier !» - Русское название: Неприкаянные
Оригинальное название: The Misfits
Страна: США
Год выпуска: 1961
Жанр: драма, мелодрама, вестерн
Описание фильма:
Соблазнительная и печальная, Розлин специально приехала в городок Рино, чтобы развестись с мужем. В местном баре Розлин и ее приятельница Изабель - неунывающая дамочка преклонных «средних лет», специалистка по разводам - знакомятся с двумя ковбоями.
Гэй и Гвидс - мужчины с большим жизненным опытом тоже одинокие и неприкаянные. Они странствуют по Неваде в поисках случайного заработка, и горячий ветер пустыни, суровая мужская дружба, тяга к виски, мальчишеская влюбленность в родео и недостроенный домик вдалеке от города - это все, что у них есть.
Богатством, которым ковбои обладают, они готовы поделиться с Розлин, которая ищет верности и настоящего человеческого тепла. Странная компания и присоединившийся к ним неудачливый ковбой Пирс отправляются в горы на ранчо, чтобы «как встарые добрые времена» объезжать диких невадских мустангов...
Режиссер: Джон Хьюстон
Актеры: Кларк Гейбл, Мэрилин Монро, Монтгомери Клифт, Тельма Риттер, Эли Уоллах, Джеймс Бартон, Кевин МакКарти, Эстель Уинвуд, Фрэнк Фанелли ст., Пегги Бартон
Продолжительность: 02:04:56
Перевод: Многоголосый закадровый, Двухголосый закадровый, Одноголосый закадровый
Субтитры: Английский, Голландский, Французский, Немецкий, Итальянский, Японский, Португальский, Испанский
imdb kinopoisk
Дата мировой премьеры: 1 февраля 1961
Видеокодек: MPEG-4 AVC
Битрейт видео: ~22.0 Mbps
Размер кадра: 1802x1080
Качество видео: BDRip
Аудио:
1. Dolby Digital Русский 2.0 48 kHz 192 kbps (Многоголосый закадровый - DVD Магия)
2. Dolby Digital Русский 2.0 48 kHz 192 kbps (Двухголосый закадровый - НТВ+)
3. Dolby Digital Русский 2.0 48 kHz 192 kbps (Многоголосый закадровый - Светла)
4. Dolby Digital Русский 2.0 48 kHz 192 kbps (Одноголосый закадровый)
5. FLAC Английский 2.0 48 kHz 674 kbps 24-bit

Знаете ли вы, что...

• В последний день съемок Кларк Гейбл заявил: 'Боже Иисусе! Я счастлив, что этот фильм наконец-то отснят. Она [Монро] довела меня до сердечного приступа'. На следующий день Гейбл получил инфаркт миокарда и спустя 11 дней умер.
• Джон Хьюстон заработал 250 долларов, сняв себя в эпизодической роли.
• За Мэрилин Монро и Монтгомери Клифтом на протяжении съемок приглядывал доктор — 24 часа в сутки!
• «Неприкаянные» были написаны Артуром Миллером как короткая история, пока он ждал собственного развода в Рино, перед свадьбой с Мэрилин Монро.

MediaInfo

General
Complete name : F:\THE MISFITS\The.Misfits.1961.1080p.Bluray.4xRus.Eng.ac3.flac.HDCLUB.nmd.mkv
Format : Matroska
File size : 26.6 MiB
Duration : 2h 29mn
Overall bit rate : 24.8 Kbps
Encoded date : UTC 2013-03-09 14:21:06
Writing application : mkvmerge v5.4.0 ('Piper') built on Mar 10 2012 13:34:39
Writing library : libebml v1.2.3 + libmatroska v1.3.0
Video
ID : 1
Format : AVC
Format/Info : Advanced Video Codec
Format profile : [url=mailto:[email protected]][email protected][/url]
Format settings, CABAC : Yes
Format settings, ReFrames : 5 frames
Muxing mode : Container [email protected]
Codec ID : V_MPEG4/ISO/AVC
Duration : 2h 29mn
Nominal bit rate : 8 925 Kbps
Width : 1 920 pixels
Height : 800 pixels
Display aspect ratio : 2.40:1
Frame rate : 23.976 fps
Resolution : 24 bits
Colorimetry : 4:2:0
Scan type : Progressive
Bits/(Pixel*Frame) : 0.242
Writing library : x264 core 130 r2273 b3065e6
Encoding settings : cabac=1 / ref=5 / deblock=1:0:0 / analyse=0x3:0x133 / me=umh / subme=7 / psy=1 / psy_rd=1.00:0.00 / mixed_ref=1 / me_range=16 / chroma_me=1 / trellis=1 / 8x8dct=1 / cqm=0 / deadzone=21,11 / fast_pskip=0 / chroma_qp_offset=-2 / threads=18 / lookahead_threads=3 / sliced_threads=0 / nr=0 / decimate=1 / interlaced=0 / bluray_compat=0 / constrained_intra=0 / bframes=3 / b_pyramid=2 / b_adapt=1 / b_bias=0 / direct=1 / weightb=1 / open_gop=0 / weightp=2 / keyint=250 / keyint_min=23 / scenecut=40 / intra_refresh=0 / rc_lookahead=40 / rc=2pass / mbtree=1 / bitrate=8925 / ratetol=1.0 / qcomp=0.60 / qpmin=0 / qpmax=69 / qpstep=4 / cplxblur=20.0 / qblur=0.5 / ip_ratio=1.40 / aq=1:1.00
Audio #1
ID : 2
Format : AC-3
Format/Info : Audio Coding 3
Codec ID : A_AC3
Duration : 2h 29mn
Bit rate mode : Constant
Bit rate : 384 Kbps
Channel(s) : 6 channels
Channel positions : Front: L C R, Surround: L R, LFE
Sampling rate : 48.0 KHz
Stream size : 412 MiB
Title : DD 5.1 @ Russian 384 kbps MVO |Baibako|
Language : Russian
Audio #2
ID : 3
Format : DTS
Format/Info : Digital Theater Systems
Codec ID : A_DTS
Duration : 2h 29mn
Bit rate mode : Constant
Bit rate : 1 510 Kbps
Channel(s) : 6 channels
Channel positions : Front: L C R, Surround: L R, LFE
Sampling rate : 48.0 KHz
Resolution : 24 bits
Video delay : 11ms
Stream size : 1.58 GiB
Title : DTS 5.1 @ English 1536 kbps
Text #1
ID : 4
Format : UTF-8
Codec ID : S_TEXT/UTF8
Codec ID/Info : UTF-8 Plain Text
Title : Russian Subtiles
Language : Russian
Text #2
ID : 5
Format : UTF-8
Codec ID : S_TEXT/UTF8
Codec ID/Info : UTF-8 Plain Text
Title : English Subtitles
Text #3
ID : 6
Format : UTF-8
Codec ID : S_TEXT/UTF8
Codec ID/Info : UTF-8 Plain Text
Title : French Subtitles
Language : French
Text #4
ID : 7
Format : UTF-8
Codec ID : S_TEXT/UTF8
Codec ID/Info : UTF-8 Plain Text
Title : Spanish Subtitles
Language : Spanish
Text #5
ID : 8
Format : UTF-8
Codec ID : S_TEXT/UTF8
Codec ID/Info : UTF-8 Plain Text
Title : Nederlands By Simply ReleaseS Toppers
Language : Dutch
Text #6
ID : 9
Format : UTF-8
Codec ID : S_TEXT/UTF8
Codec ID/Info : UTF-8 Plain Text
Title : Portugese
Language : Portuguese
Menu
00:00:00.000 : en:00:00:00.000
00:06:11.246 : en:00:06:11.246
00:13:57.920 : en:00:13:57.920
00:23:16.604 : en:00:23:16.604
00:35:13.570 : en:00:35:13.570
00:40:31.929 : en:00:40:31.929
00:45:53.793 : en:00:45:53.793
00:52:56.840 : en:00:52:56.840
00:59:45.874 : en:00:59:45.874
01:08:25.977 : en:01:08:25.977
01:18:55.940 : en:01:18:55.940
01:24:30.607 : en:01:24:30.607
01:35:41.486 : en:01:35:41.486
01:39:58.868 : en:01:39:58.868
01:46:40.769 : en:01:46:40.769
01:52:54.184 : en:01:52:54.184
02:02:51.030 : en:02:02:51.030
02:09:32.264 : en:02:09:32.264
02:15:42.718 : en:02:15:42.718
02:21:23.308 : en:02:21:23.308
Скриншоты:
       -
Вне форума [Профиль] [ЛС]
Показать сообщения:    
Ответить на тему

Текущее время: Сегодня 08:57

Часовой пояс: GMT + 3



Вы не можете начинать темы
Вы не можете отвечать на сообщения
Вы не можете редактировать свои сообщения
Вы не можете удалять свои сообщения
Вы не можете голосовать в опросах
Вы не можете прикреплять файлы к сообщениям
Вы не можете скачивать файлы