Сегодня идет свободное скачивание без начисления Download

Женщина есть женщина / A Woman Is a Woman / Une femme est une femme (1961) [720p] WEB-DL

Ответить на тему
 
Автор
Сообщение

UndegraundMen ®

Стаж: 3 года 9 месяцев

Сообщений: 28329

Торрент-статистика

Пост 13-Мар-2013 11:03

[Цитировать]

Женщина есть женщина / A Woman Is a Woman / Une femme est une femme (1961) [720p] WEB-DL
- - Название: Женщина есть женщина
Оригинальное название: A Woman Is a Woman / Une femme est une femme
Год выпуска: 1961
Жанр: Драма, мелодрама, комедия
Выпущено: Франция, Италия, Rome Paris Films, Euro International Film (EIA)
Описание фильма:
Анжела во что бы то ни стало хочет ребенка, но ее муж Эмиль отказывается. В конце концов она делает вид, что попросила их друга Альфреда оказать ей честь, которая принимается. Эмиль, пойманный в ловушку, наконец удовлетворяет желание своей жены.
Режиссер: Жан-Люк Годар
В ролях: Жан-Клод Бриали, Анна Карина, Жан-Поль Бельмондо, Анри Атталь, Доротея Бланк, Мари Дюбуа, Эрнест Мензе, Жанна Моро, Николь Пакуин, Марион Сарро, Доминик Зарди
Продолжительность: 01:23:39
Перевод: Многоголосый закадровый
Субтитры: Русские
imdb kinopoisk при поддержке SNAUTS
Рейтинг MPAA: PG 13– лицам до 13 лет обязательное присутствие родителей!!!
Видеокодек: MPEG-4 AVC
Битрейт видео: ~ 4000 kbps
Размер кадра: 904x720
Качество видео: WEB-DL
Аудио:
1. AC3 Русский 2.0 / 48 kHz / 192 kbps (Многоголосый закадровый)
2. AC3 Русский 2.0 / 48 kHz / 192 kbps (Многоголосый закадровый, ОРТ)
3. AAC Французский 2.0 / 48 kHz / 160 kbps

MediaInfo

General
Complete name : F:\WEB\Une.femme.est.une.femme.1961.720p.WEB-DL.2xRus.Fre.Sub.HDCLUB.mkv
Format : Matroska
File size : 2.55 GiB
Duration : 1h 23mn
Overall bit rate : 4 359 Kbps
Movie name : Une femme est une femme (1961)
Encoded date : UTC 2013-03-10 02:06:28
Writing application : mkvmerge v6.1.0 ('Old Devil') built on Mar 2 2013 14:32:37
Writing library : libebml v1.3.0 + libmatroska v1.4.0
Video
ID : 1
Format : AVC
Format/Info : Advanced Video Codec
Format profile : [url=mailto:[email protected]][email protected][/url]
Format settings, CABAC : No
Format settings, ReFrames : 2 frames
Muxing mode : Container [email protected]
Codec ID : V_MPEG4/ISO/AVC
Duration : 1h 23mn
Width : 1 280 pixels
Height : 544 pixels
Display aspect ratio : 2.35:1
Frame rate : 24.000 fps
Resolution : 24 bits
Colorimetry : 4:2:0
Scan type : Progressive
Language : French
colour_primaries : BT.709-5, BT.1361, IEC 61966-2-4, SMPTE RP177
transfer_characteristics : BT.709-5, BT.1361
matrix_coefficients : BT.709-5, BT.1361, IEC 61966-2-4 709, SMPTE RP177
Audio #1
ID : 2
Format : AC-3
Format/Info : Audio Coding 3
Format profile : Dolby Digital
Codec ID : A_AC3
Duration : 1h 23mn
Bit rate mode : Constant
Bit rate : 192 Kbps
Channel(s) : 2 channels
Channel positions : L R
Sampling rate : 48.0 KHz
Stream size : 115 MiB (4%)
Title : AC3 48 kHz 2.0 192 kbps MVO
Language : Russian
Audio #2
ID : 3
Format : AC-3
Format/Info : Audio Coding 3
Format profile : Dolby Digital
Codec ID : A_AC3
Duration : 1h 23mn
Bit rate mode : Constant
Bit rate : 192 Kbps
Channel(s) : 2 channels
Channel positions : L R
Sampling rate : 48.0 KHz
Stream size : 115 MiB (4%)
Title : AC3 48 kHz 2.0 192 kbps MVO ORT
Language : Russian
Audio #3
ID : 4
Format : AAC
Format/Info : Advanced Audio Codec
Format version : Version 4
Format profile : LC
Format settings, SBR : No
Codec ID : A_AAC
Duration : 1h 23mn
Channel(s) : 2 channels
Channel positions : L R
Sampling rate : 48.0 KHz
Resolution : 16 bits
Title : AAC 2.0 VBR Original
Language : French
Text
ID : 5
Format : UTF-8
Codec ID : S_TEXT/UTF8
Codec ID/Info : UTF-8 Plain Text
Title : Russian
Language : Russian
Menu
00:00:00.000 : en:Chapitre 1
00:08:00.000 : en:Chapitre 2
00:16:00.000 : en:Chapitre 3
00:24:00.000 : en:Chapitre 4
00:32:00.000 : en:Chapitre 5
00:40:00.000 : en:Chapitre 6
00:48:00.000 : en:Chapitre 7
00:56:00.000 : en:Chapitre 8
01:04:00.000 : en:Chapitre 9
01:12:00.000 : en:Chapitre 10
Скриншоты:
       -
Вне форума [Профиль] [ЛС]
Похожие темы
Форум Тема Автор Торрент Отв. Посл. сообщение
./templates/default/images/folder_dl.gif ЖЗЛ. Биографии. Мемуары. Историография. В.М.Скляренко и др. | 100 знаменитых женщин [2008] [FB2] sashau
1 | 0

0 | 543

5

2013-04-06 17:36
sashau Последнее
./templates/default/images/folder_dl.gif T Фильмы 2001-2010 Город грехов 2: Женщина, ради которой стоит убивать / Sin City: A Dame to Kill For (Фрэнк Миллер, Роберт Родригес) [2014 г., фантастика, боевик, WEBRip-AVC] DUB |чистый звук Theseus
1 | 0

0 | 1937

85

2014-09-21 14:14
Theseus Последнее
./templates/default/images/folder_dl.gif Видеотренинги Алекс Мэй | Идеальный вечер для женщин (2014) CamRip [сексология, соблазнение] Omen
2 | 0

0 | 113

81

2015-06-05 00:03
Omen Последнее
Показать сообщения:    
Ответить на тему

Текущее время: Сегодня 08:57

Часовой пояс: GMT + 3



Вы не можете начинать темы
Вы не можете отвечать на сообщения
Вы не можете редактировать свои сообщения
Вы не можете удалять свои сообщения
Вы не можете голосовать в опросах
Вы не можете прикреплять файлы к сообщениям
Вы не можете скачивать файлы