Сегодня идет свободное скачивание без начисления Download

Парни и куколки / Guys and Dolls (1955) [720p] BDRip

Ответить на тему
 
Автор
Сообщение

UndegraundMen ®

Стаж: 3 года 9 месяцев

Сообщений: 28329

Торрент-статистика

Пост 13-Мар-2013 11:03

[Цитировать]

Парни и куколки / Guys and Dolls (1955) [720p] BDRip
- - Название: Парни и куколки
Оригинальное название: Guys and Dolls
Год выпуска: 1955
Жанр: Мелодрама, комедия
Выпущено: США, Samuel Goldwyn Company
Описание фильма:
Время действия — Нью-Йорк, 1920-ые годы. Главные персонажи — игроки, букмекеры и их свита с одной стороны и вездесущий полицейский, который идет прямо по их следу — с другой. Натан Детройт — организатор «Игры по-крупному». Его задача найти место, где соответствующая публика могла бы спокойно сыграть. Ставки как всегда высоки, азартных игроков много, вот только где найти место, чтобы полиция не узнала об игре, хотя бы до утра… Натану подвернулась возможность арендовать безопасный гараж, но хозяин гаража требует задаток в 1000 долларов. Таких денег Натан не имеет. Пораскинув мозгами, он решает выиграть их в споре. Он знает человека — Ская Мастерсона, готового держать пари на что угодно. Натан предлагает ему пари на 1000 долларов — уговорить девушку слетать со Скаем поужинать на Кубу… Известный донжуан Скай принимает пари, уверенный, что ни одна девушка не откажет ему. Натан указывает Скаю на сестру Армии спасения Сару Броун. И уже уверенный в своем выигрыше, так как Сара Броун — это неприступная крепость добродетели, Натан берется за дело и начинает собирать народ на игру. Хорошей новостью он бежит поделиться со свой подружкой Аделаидой. Они помолвлены уже 14 лет… Аделаида — танцовщица в кабаре и она честно ждет все эти годы, когда Натан жениться на ней. В общем-то, из-за этой женской роли и затевался весь этот фильм, так как именно комичная Аделаида, со своим психосоматическим чихом из-за затянувшегося ожидания свадьбы, имела успех на Бродвее. Мужские же роли между Фрэнком Синатрой и Марлоном Брандо должны были быть распределены с точностью наоборот. Но, что получилось, то получилось: мюзикл, где все поют и танцуют. Итак, женится ли Натан Детройт на Аделаиде после 14 лет помолвки? Уговорит ли Скай Мастерсон слетать с ним Сару Броун поужинать на Кубу? Состоится ли большая игра?
Режиссер: Джозеф Лео Манкевич
В ролях: Марлон Брандо, Джин Симмонс, Фрэнк Синатра, Вивиан Блейн, Роберт Кейт, Стабби Кэй, Джонни Сильвер, Шелдон Леонард, Дэнни Дэйтон, Джордж Э. Стоун, Режис Туми, Веда Энн Борг, Мэри Алан Хокансон, Кэй Е. Кьютер, Степлтон Кент, Барбара Брент, Янн Дарлин, Мэдлин Дарроу, Пэт Шиэн, Ларри Томас, Сандра Уорнер, Соня Уорнер
Продолжительность: 02:29:29
Перевод: Многоголосый закадровый
Субтитры: Английские
imdb kinopoisk
Рейтинг MPAA: PG 13– лицам до 13 лет обязательное присутствие родителей!!!
Дата мировой премьеры: 3 ноября 1955
Видеокодек: MPEG-4 AVC
Битрейт видео: ~ 5373 Kbps
Размер кадра: 1280x502
Качество видео: BDRip
Аудио:
1. Dolby Digital Русский 5.1 / 48 kHz / 448 kbps (Многоголосый закадровый, DVD Магия)
2. Dolby Digital Английский 5.1 / 48 kHz / 640 kbps

Награды и номинации

Британская академия, 1957 год
Номинации (2):
• Лучший фильм
• Лучшая иностранная актриса (Джин Симмонс)
Оскар, 1956 год
Номинации (4):
• Лучшая работа оператора (цветные фильмы)
• Лучшая работа художника (цветные фильмы)
• Лучшая работа художника по костюмам (цветные фильмы)
• Лучший саундтрек для музыкальных картин
Золотой глобус, 1956 год
Победитель (2):
• Лучшая женская роль (комедия или мюзикл) (Джин Симмонс)
• Лучший фильм (комедия или мюзикл)

MediaInfo

Guys.and.Dolls.1955.720p.BluRay.Rus.Eng.HDCLUB.mkv
Format : Matroska
Format version : Version 4 / Version 2
File size : 6.75 GiB
Duration : 2h 29mn
Overall bit rate : 6 463 Kbps
Movie name : Guys and Dolls (1955)
Encoded date : UTC 2013-03-11 03:19:40
Writing application : mkvmerge v6.1.0 ('Old Devil') built on Mar 2 2013 14:32:37
Writing library : libebml v1.3.0 + libmatroska v1.4.0
Video
ID : 1
Format : AVC
Format/Info : Advanced Video Codec
Format profile : [url=mailto:[email protected]][email protected][/url]
Format settings, CABAC : Yes
Format settings, ReFrames : 8 frames
Codec ID : V_MPEG4/ISO/AVC
Duration : 2h 29mn
Bit rate : 5 373 Kbps
Width : 1 280 pixels
Height : 502 pixels
Display aspect ratio : 2.550
Frame rate mode : Constant
Frame rate : 23.976 fps
Color space : YUV
Chroma subsampling : 4:2:0
Bit depth : 8 bits
Scan type : Progressive
Bits/(Pixel*Frame) : 0.349
Stream size : 5.48 GiB (81%)
Title : Guys and Dolls (1955)
Writing library : x264 core 130 r2273 b3065e6
Encoding settings : cabac=1 / ref=8 / deblock=1:-1:-1 / analyse=0x3:0x113 / me=umh / subme=10 / psy=1 / psy_rd=1.00:0.20 / mixed_ref=1 / me_range=32 / chroma_me=1 / trellis=2 / 8x8dct=1 / cqm=0 / deadzone=21,11 / fast_pskip=0 / chroma_qp_offset=-3 / threads=12 / lookahead_threads=1 / sliced_threads=0 / nr=0 / decimate=0 / interlaced=0 / bluray_compat=0 / constrained_intra=0 / bframes=6 / b_pyramid=2 / b_adapt=2 / b_bias=0 / direct=3 / weightb=1 / open_gop=0 / weightp=2 / keyint=240 / keyint_min=23 / scenecut=40 / intra_refresh=0 / rc_lookahead=40 / rc=2pass / mbtree=0 / bitrate=5373 / ratetol=1.0 / qcomp=0.60 / qpmin=0 / qpmax=69 / qpstep=4 / cplxblur=20.0 / qblur=0.5 / vbv_maxrate=50000 / vbv_bufsize=62500 / nal_hrd=none / ip_ratio=1.40 / pb_ratio=1.30 / aq=1:1.00
Language : English
Default : Yes
Forced : No
Audio #1
ID : 2
Format : AC-3
Format/Info : Audio Coding 3
Mode extension : CM (complete main)
Format settings, Endianness : Big
Codec ID : A_AC3
Duration : 2h 29mn
Bit rate mode : Constant
Bit rate : 448 Kbps
Channel(s) : 6 channels
Channel positions : Front: L C R, Side: L R, LFE
Sampling rate : 48.0 KHz
Bit depth : 16 bits
Compression mode : Lossy
Stream size : 479 MiB (7%)
Title : AC3 6 ch 448 kbps MVO (DVD Magija)
Language : Russian
Default : Yes
Forced : No
Audio #2
ID : 3
Format : AC-3
Format/Info : Audio Coding 3
Mode extension : CM (complete main)
Format settings, Endianness : Big
Codec ID : A_AC3
Duration : 2h 29mn
Bit rate mode : Constant
Bit rate : 640 Kbps
Channel(s) : 6 channels
Channel positions : Front: L C R, Side: L R, LFE
Sampling rate : 48.0 KHz
Bit depth : 16 bits
Compression mode : Lossy
Stream size : 684 MiB (10%)
Title : AC3 6 ch 640 kbps Original
Language : English
Default : No
Forced : No
Text
ID : 4
Format : UTF-8
Codec ID : S_TEXT/UTF8
Codec ID/Info : UTF-8 Plain Text
Title : English SDH
Language : English
Default : No
Forced : No
Menu
00:00:00.000 : en:Chapter 1
00:09:53.884 : en:Chapter 2
00:22:26.595 : en:Chapter 3
00:28:46.433 : en:Chapter 4
00:43:27.605 : en:Chapter 5
00:52:58.341 : en:Chapter 6
00:59:11.631 : en:Chapter 7
01:12:45.027 : en:Chapter 8
01:21:54.533 : en:Chapter 9
01:30:29.173 : en:Chapter 10
01:44:10.243 : en:Chapter 11
01:51:34.187 : en:Chapter 12
02:01:38.582 : en:Chapter 13
02:13:44.349 : en:Chapter 14
02:21:17.385 : en:Chapter 15
02:28:40.453 : en:Chapter 16
02:29:28.709 : en:Chapter 17
Скриншоты:
       -Раздача: 24/7-Не забываем говорить спасибо, Вам не сложно, а мне приятно)))
Прошу с раздачи не уходить! Скачал сам, дай и другим скачать!!!
Приятного просмотра)))
Вне форума [Профиль] [ЛС]
Показать сообщения:    
Ответить на тему

Текущее время: Сегодня 09:45

Часовой пояс: GMT + 3



Вы не можете начинать темы
Вы не можете отвечать на сообщения
Вы не можете редактировать свои сообщения
Вы не можете удалять свои сообщения
Вы не можете голосовать в опросах
Вы не можете прикреплять файлы к сообщениям
Вы не можете скачивать файлы