Сегодня идет свободное скачивание без начисления Download

Апач / Apache (1954) [720p] HDTVRip

Ответить на тему
 
Автор
Сообщение

UndegraundMen ®

Стаж: 3 года 9 месяцев

Сообщений: 28329

Торрент-статистика

Пост 14-Мар-2013 03:55

[Цитировать]

Апач / Apache (1954) HDTVRip- Русское название: Апач
Оригинальное название: Apache
Год выпуска: 1954
Жанр: Вестерн
Описание фильма:
По пути во Флориду из товарного вагона, куда солдаты Соединенных Штатов загрузили пленных индейцев, сумев освободиться от оков, бежит молодой апач по имени Массаи. Красивый мускулистый воин, после долгих испытаний, наконец, достигнув родных степей, вновь берется за оружие, чтобы отомстить своим бледнолицым врагам.
Режиссер: Роберт Олдрич
Актеры: Берт Ланкастер, Джин Питерс, Джон МакИнтайр,Чарлз Бронсон, Джон Денер, Пол Гилфойл, Иан МакДоналд
Продолжительность: 01:23:33
Перевод: Многоголосый закадровый
imdb kinopoisk
Дата мировой премьеры: 9 июля 1954
Видеокодек: MPEG-4 AVC/H.264
Битрейт видео: ~4000kb/s
Размер кадра: 1280x720
Качество видео: HDTVRip
Аудио: AC3 Русский 2.0 / 48 kHz / 192 kbps / 16-bit Профессиональный двухголосый
Сэмпл: Ссылка

MediaInfo

Общее
Уникальный идентификатор : 200222086858561256690097590199731424896 (0x96A15F0AF3A63680B9BAF099B1150E80)
Полное имя : C:\Xvid4PSP\Апач .1954. HDTVRip.720p.mkv
Формат : Matroska
Версия формата : Version 4 / Version 2
Размер файла : 2,45 Гбайт
Продолжительность : 1 ч. 23 м.
Общий поток : 4205 Кбит/сек
Дата кодирования : UTC 2013-03-13 09:23:25
Программа кодирования : mkvmerge v6.1.0 ('Old Devil') built on Mar 2 2013 14:32:37
Библиотека кодирования : libebml v1.3.0 + libmatroska v1.4.0
Видео
Идентификатор : 1
Формат : AVC
Формат/Информация : Advanced Video Codec
Профиль формата : [url=mailto:[email protected]][email protected][/url]
Параметр CABAC формата : Нет
Параметр ReFrames формата : 4 кадра
Идентификатор кодека : V_MPEG4/ISO/AVC
Продолжительность : 1 ч. 23 м.
Битрейт : 4000 Кбит/сек
Ширина : 1280 пикселей
Высота : 720 пикселей
Соотношение сторон : 16:9
Режим частоты кадров : Постоянный
Частота кадров : 25,000 кадров/сек
Цветовое пространство : YUV
Субдискретизация насыщенности : 4:2:0
Битовая глубина : 8 бит
Тип развёртки : Прогрессивная
Бит/(Пиксели*Кадры) : 0.174
Размер потока : 2,29 Гбайт (93%)
Библиотека кодирования : x264 core 125 r2208 d9d2288
Настройки программы : cabac=0 / ref=3 / deblock=1:-1:-1 / analyse=0x1:0x111 / me=umh / subme=7 / psy=1 / psy_rd=1.00:0.00 / mixed_ref=1 / me_range=32 / chroma_me=1 / trellis=0 / 8x8dct=0 / cqm=0 / deadzone=21,11 / fast_pskip=1 / chroma_qp_offset=-2 / threads=3 / lookahead_threads=1 / sliced_threads=0 / nr=0 / decimate=1 / interlaced=0 / bluray_compat=0 / constrained_intra=0 / bframes=3 / b_pyramid=2 / b_adapt=0 / b_bias=0 / direct=1 / weightb=1 / open_gop=0 / weightp=2 / keyint=250 / keyint_min=25 / scenecut=40 / intra_refresh=0 / rc_lookahead=40 / rc=abr / mbtree=1 / bitrate=4000 / ratetol=1.0 / qcomp=0.60 / qpmin=0 / qpmax=69 / qpstep=4 / ip_ratio=1.40 / aq=1:1.00
Default : Да
Forced : Нет
Аудио
Идентификатор : 2
Формат : AC-3
Формат/Информация : Audio Coding 3
Расширение режима : CM (complete main)
Параметр Endianness формата : Big
Идентификатор кодека : A_AC3
Продолжительность : 1 ч. 23 м.
Вид битрейта : Постоянный
Битрейт : 192 Кбит/сек
Каналы : 2 канала
Расположение каналов : Front: L R
Частота : 48,0 КГц
Битовая глубина : 16 бит
Метод сжатия : С потерями
Размер потока : 115 Мбайт (5%)
Default : Да
Forced : Нет
Скриншоты:
         
Вне форума [Профиль] [ЛС]
Показать сообщения:    
Ответить на тему

Текущее время: Сегодня 20:24

Часовой пояс: GMT + 3



Вы не можете начинать темы
Вы не можете отвечать на сообщения
Вы не можете редактировать свои сообщения
Вы не можете удалять свои сообщения
Вы не можете голосовать в опросах
Вы не можете прикреплять файлы к сообщениям
Вы не можете скачивать файлы