Today is a free download without charge Download

(Rock) Океан Ельзи / Океан Эльзы - Дискография + Святослав Вакарчук - Сольные альбомы (1998 - 2014) WV/FLAC (image/tracks+cue), Lossless

Reply to topic
 
Author
Message

Theseus ®

Gender:

Longevity: 8 years 3 months

Posts: 2053

Торрент-статистика

Post 02-Jul-2011 19:15

[Quote]

-Океан Ельзи / Океан Эльзы - Дискография + Святослав Вакарчук - Сольные альбомы- -Исполнитель: Океан Ельзи / Океан Эльзы
Жанр: Rock
Дата выпуска: 1998 - 2014
Страна: Украина
Формат: WV/FLAC/APE (image+cue)
Битрейт: Lossless
Продолжительность: 18CD, 14:32:44
Доп. информация: Океан Эльзы многократно признаны публикой и критиками как лучшая рок-группа и лучшая live-группа СНГ и Восточной Европы. Океан Эльзы - это экспрессивный, самоотверженный концертный драйв, уникальное сочетание настоящей славянской мелодичности с мощной роковой энергетикой.Пластинки группы всегда резонансные и становятся громким событием. Сольные концерты Океан Ельзи, главным условием которых является живой звук, неизменно вызывают большой интерес.
Состав группы: Денис Глинин (ударные), Денис Дудко (бас-гитара), Милош Елич (клавишные), Петр Чернявский (гитара), Святослав Вакарчук (вокал)

Треклист

01 - Там, де нас нема

Исполнитель: Океан Ельзи
Альбом: Там, де нас нема
Тип релиза: Студийная запись
Жанр: Rock
Дата выпуска: 1998
Страна: Украина
Формат: WV (image+cue)
Битрейт: 915 kbps
Продолжительность: 00:56:46
Треклист:
01. Новий день [00:02:50]
02. Там, де нас нема [00:03:31]
03. Голос твiй [00:03:57]
04. Позич менi сонце [00:04:08]
05. Тадж-Махал [00:03:24]
06. Сумна мелодiя [00:04:20]
07. Поїзд 'чужа любов' [00:04:01]
08. Йду на дно [00:03:37]
09. Вiсiм [00:03:31]
10. Ластiвка з мого мiста [00:03:05]
11. Ти забула давно [00:04:41]
12. Long Time Ago [00:03:49]
13. Колиска вiтру (бонус-трек) [00:03:08]
14. Годi вже (бонус-трек) [00:04:31]
15. Там, де нас нема (Danilkin Де ви є remix) (бонус-трек) [00:04:07]

Отчёт EAC

EAC extraction logfile from 14. June 2007, 18:15 for CD
Океан Ельзи / Там, де нас нема
Used drive : ASUS CRW-5232AS Adapter: 1 ID: 1
Read mode : Secure with NO C2, accurate stream, disable cache
Read offset correction : 6
Overread into Lead-In and Lead-Out : No
Used output format : C:\Program Files\Monkey's Audio\wapet.exe (User Defined Encoder)
Additional command line options : %d -t "Artist=%a" -t "Title=%t" -t "Album=%g" -t "Year=%y" -t "Track=%n" -t "Genre=%m" "C:\Program Files\Monkey's Audio\mac.exe" %s %d -c4000
Other options :
Fill up missing offset samples with silence : Yes
Delete leading and trailing silent blocks : No
Installed external ASPI interface
Range status and errors
Selected range
Filename E:\!tracker\!2release\OKEAN_ELZY\1998 - (Studio) - Tam De Nas Nema\Okean Elzy - Tam De Nas Nema.wav
Peak level 98.9 %
Range quality 100.0 %
CRC 2B9F7964
Copy OK
No errors occured
End of status report

02 - Янанебiбув

Исполнитель: Океан Ельзи
Альбом: Янанебiбув
Тип релиза: Студийная запись
Жанр: Rock
Дата выпуска: 2000
Страна: Украина
Формат: WV (image+cue)
Битрейт: 914 kbps
Продолжительность: 00:42:17
Треклист:
01. Янанебiбув [00:03:15]
02. Той день [00:03:55]
03. Мало менi [00:05:02]
04. Сосни [00:04:28]
05. Кавачай [00:04:36]
06. Вiдпусти [00:03:49]
07. Африка [00:04:21]
08. Поясни [00:03:36]
09. Фiалки [00:03:39]
10. Коли тебе нема [00:03:14]
11. Етюд [00:02:18]

Отчёт EAC

EAC extraction logfile from 14. June 2007, 14:25 for CD
Океан Ельзи / Янанебiбув
Used drive : ASUS CRW-5232AS Adapter: 1 ID: 1
Read mode : Secure with NO C2, accurate stream, disable cache
Read offset correction : 6
Overread into Lead-In and Lead-Out : No
Used output format : C:\Program Files\Monkey's Audio\wapet.exe (User Defined Encoder)
Additional command line options : %d -t "Artist=%a" -t "Title=%t" -t "Album=%g" -t "Year=%y" -t "Track=%n" -t "Genre=%m" "C:\Program Files\Monkey's Audio\mac.exe" %s %d -c4000
Other options :
Fill up missing offset samples with silence : Yes
Delete leading and trailing silent blocks : No
Installed external ASPI interface
Range status and errors
Selected range
Filename E:\!tracker\!2release\OKEAN_ELZY\2000 - (Studio) - Yananebibuv\Okean Elzy - Yananebibuv.wav
Peak level 97.9 %
Range quality 100.0 %
CRC DF9021EF
Copy OK
No errors occured
End of status report

03 - Модель

Исполнитель: Океан Ельзи
Альбом: Модель
Тип релиза: Студийная запись
Жанр: Rock
Дата выпуска: 2001
Страна: Украина
Формат: WV (image+cue)
Битрейт: 930 kbps
Продолжительность: 00:41:13
Треклист:
01. 911 [00:03:29]
02. Я до тебе [00:04:47]
03. Друг ч.1 [00:01:22]
04. Друг ч.2 [00:04:04]
05. Ти собi сама [00:03:49]
06. Квiтка [00:04:15]
07. Вставай [00:02:54]
08. Isn't It сон [00:03:40]
09. Коко Шанель [00:03:55]
10. Сьогоднi [00:03:28]
11. Вулиця (може все не так) [00:05:26]

Отчёт EAC

EAC extraction logfile from 14. June 2007, 13:32 for CD
Океан Ельзи / Модель
Used drive : ASUS CRW-5232AS Adapter: 1 ID: 1
Read mode : Secure with NO C2, accurate stream, disable cache
Read offset correction : 6
Overread into Lead-In and Lead-Out : No
Used output format : C:\Program Files\Monkey's Audio\wapet.exe (User Defined Encoder)
Additional command line options : %d -t "Artist=%a" -t "Title=%t" -t "Album=%g" -t "Year=%y" -t "Track=%n" -t "Genre=%m" "C:\Program Files\Monkey's Audio\mac.exe" %s %d -c4000
Other options :
Fill up missing offset samples with silence : Yes
Delete leading and trailing silent blocks : No
Installed external ASPI interface
Range status and errors
Selected range
Filename E:\!tracker\!2release\OKEAN_ELZY\2001 - (Studio) - Model\Okean Elzy - Model.wav
Peak level 96.6 %
Range quality 100.0 %
CRC 020B9A7A
Copy OK
No errors occured
End of status report

04 - Холодно (сингл)

Исполнитель: Океан Ельзи
Альбом: Холодно (сингл)
Тип релиза: Сингл [CDS]
Жанр: Rock
Дата выпуска: 2002
Формат: WV (image+cue)
Битрейт: 909 kbps
Продолжительность: 00:13:11
Треклист:
01. Холодно [00:04:32]
02. Susy [00:04:02]
03. Холодно (Ambient Version) [00:04:37]

Отчёт EAC

Exact Audio Copy V0.99 prebeta 3 from 28. July 2007
EAC extraction logfile from 31. October 2007, 12:17
Океан Ельзи / Холодно
Used drive : _NEC DVD_RW ND-3550A Adapter: 1 ID: 0
Read mode : Secure
Utilize accurate stream : Yes
Defeat audio cache : Yes
Make use of C2 pointers : No
Read offset correction : 48
Overread into Lead-In and Lead-Out : No
Fill up missing offset samples with silence : Yes
Delete leading and trailing silent blocks : No
Null samples used in CRC calculations : Yes
Used interface : Installed external ASPI interface
Used output format : Monkey's Audio Lossless Encoder v3.99 DLL
Sample format : Normal Lossless Compression
TOC of the extracted CD
Track | Start | Length | Start sector | End sector
---------------------------------------------------------
1 | 0:00.00 | 4:34.37 | 0 | 20586
2 | 4:34.37 | 4:04.09 | 20587 | 38895
3 | 8:38.46 | 4:39.04 | 38896 | 59824
Range status and errors
Selected range
Filename E:\!tracker\OKEAN_ELZY\okean.elzy-2002-holodno.(single)\Okean Elzy - Holodno.ape
Peak level 100.0 %
Range quality 100.0 %
Copy CRC D33DC455
Copy OK
No errors occurred
AccurateRip summary
Track 1 not present in database
Track 2 not present in database
Track 3 not present in database
None of the tracks are present in the AccurateRip database
End of status report

05 - Суперсиметрiя

Исполнитель: Океан Ельзи
Альбом: Суперсиметрiя
Тип релиза: Студийная запись
Жанр: Rock
Дата выпуска: 2003
Страна: Украина
Формат: WV (image+cue)
Битрейт: 989 kbps
Продолжительность: 00:42:29
Треклист:
01. Кiшка [00:03:51]
02. Дiвчина (з iншого життя) [00:03:38]
03. Вiльний [00:03:49]
04. Susy [00:04:00]
05. Мене [00:03:24]
06. Для тебе [00:03:53]
07. Ледi [00:02:50]
08. Майже весна [00:04:11]
09. Холодно [00:04:32]
10. Вiддам [00:03:58]
11. Невидима сiм'я [00:04:19]

Отчёт EAC

EAC extraction logfile from 14. June 2007, 9:23 for CD
Океан Ельзи / Суперсиметрiя
Used drive : ASUS CRW-5232AS Adapter: 1 ID: 1
Read mode : Secure with NO C2, accurate stream, disable cache
Read offset correction : 6
Overread into Lead-In and Lead-Out : No
Used output format : C:\Program Files\Monkey's Audio\wapet.exe (User Defined Encoder)
Additional command line options : %d -t "Artist=%a" -t "Title=%t" -t "Album=%g" -t "Year=%y" -t "Track=%n" -t "Genre=%m" "C:\Program Files\Monkey's Audio\mac.exe" %s %d -c4000
Other options :
Fill up missing offset samples with silence : Yes
Delete leading and trailing silent blocks : No
Installed external ASPI interface
Range status and errors
Selected range
Filename E:\!tracker\!2release\OKEAN_ELZY\2003 - (Studio) - Supersymetriya\Okean Elzy - Supersymetriya.wav
Peak level 98.6 %
Range quality 100.0 %
CRC 900E5083
Copy OK
No errors occured
End of status report

06 - tviй формат(Live)

Исполнитель: Океан Ельзи
Альбом: tviй формат
Тип релиза: Официальная аудиозапись концерта [Live]
Жанр: Rock
Дата выпуска: 2003
Страна: Украина
Формат: WV (image+cue)
Битрейт: 914 kbps
Продолжительность: 00:46:57
Треклист:
01. Дiвчина (iз iншого життя) [00:03:41]
02. Мало менi [00:05:22]
03. Холодно [00:05:08]
04. Поясни [00:03:51]
05. Етюд [00:03:23]
06. Сосни [00:04:38]
07. Мене [00:03:03]
08. Для тебе [00:03:33]
09. Невидима сiм'я [00:04:14]
10. Ото була весна [00:03:57]
11. Вiддам [00:04:03]
12. Я їду додому (бонус-трек) [00:01:59]

Отчёт EAC

EAC extraction logfile from 14. June 2007, 10:47 for CD
Океан Ельзи / tviй формат
Used drive : ASUS CRW-5232AS Adapter: 1 ID: 1
Read mode : Secure with NO C2, accurate stream, disable cache
Read offset correction : 6
Overread into Lead-In and Lead-Out : No
Used output format : C:\Program Files\Monkey's Audio\wapet.exe (User Defined Encoder)
Additional command line options : %d -t "Artist=%a" -t "Title=%t" -t "Album=%g" -t "Year=%y" -t "Track=%n" -t "Genre=%m" "C:\Program Files\Monkey's Audio\mac.exe" %s %d -c4000
Other options :
Fill up missing offset samples with silence : Yes
Delete leading and trailing silent blocks : No
Installed external ASPI interface
Range status and errors
Selected range
Filename E:\!tracker\!2release\OKEAN_ELZY\2003 - (Live) - TVij Format\Okean Elzy - TVij Format.wav
Peak level 100.0 %
Range quality 99.9 %
CRC F2FDB2F2
Copy OK
No errors occured
End of status report

07 - Gloria

Исполнитель: Океан Ельзи
Альбом: Gloria
Тип релиза: Студийная запись
Жанр: Rock
Дата выпуска: 2005
Страна: Украина
Формат: WV (image+cue)
Битрейт: 965 kbps
Продолжительность: 00:42:41
Треклист:
01. Перша пiсня [00:03:44]
02. Ти i я [00:03:29]
03. Вище неба [00:03:58]
04. Сонце сiдає [00:03:10]
05. Нiколи [00:03:18]
06. Тiнь твого тiла [00:03:14]
07. Без бою [00:04:19]
08. GLORIA [00:03:26]
09. Вiдчуваю [00:04:15]
10. Iкони не плачуть [00:04:12]
11. Як останнiй день [00:02:54]
12. Не питай [00:02:37]

Отчёт EAC

EAC extraction logfile from 13. June 2007, 18:46 for CD
Океан Ельзи / Gloria
Used drive : ASUS CRW-5232AS Adapter: 1 ID: 1
Read mode : Secure with NO C2, accurate stream, disable cache
Read offset correction : 6
Overread into Lead-In and Lead-Out : No
Used output format : C:\Program Files\Monkey's Audio\wapet.exe (User Defined Encoder)
Additional command line options : %d -t "Artist=%a" -t "Title=%t" -t "Album=%g" -t "Year=%y" -t "Track=%n" -t "Genre=%m" "C:\Program Files\Monkey's Audio\mac.exe" %s %d -c4000
Other options :
Fill up missing offset samples with silence : Yes
Delete leading and trailing silent blocks : No
Installed external ASPI interface
Range status and errors
Selected range
Filename E:\!tracker\!2release\OKEAN_ELZY\2005 - (Studio) - Gloria\Okean Elzy - Gloria.wav
Peak level 100.0 %
Range quality 100.0 %
CRC D6C6FAFA
Copy OK
No errors occured
End of status report

08 - 1221(Compilation)

Исполнитель: Океан Ельзи
Альбом: 1221
Тип релиза: Официальный сборник [Compilation]
Жанр: Rock
Дата выпуска: 2006
Страна: Украина
Формат: WV (image+cue)
Битрейт: 981 kbps
Продолжительность: 01:18:12
Треклист:
01. Long Time Ago [00:03:46]
02. Вона пiдiйшла до вiкна [00:04:31]
03. Там, де нас нема [00:03:27]
04. Поїзд 'чужа любов' [00:03:57]
05. Йду на дно [00:03:32]
06. Янанебiбув [00:03:15]
07. Той день [00:03:55]
08. Вiдпусти [00:03:48]
09. Ото була весна [00:04:46]
10. Вставай [00:02:54]
11. Друг (ч.1) [00:01:22]
12. Друг (ч.2) [00:04:03]
13. Вулиця [00:04:46]
14. 911 (тихий океан) [00:03:37]
15. Майже весна [00:04:10]
16. Холодно [00:03:50]
17. Дiвчина з iншого життя [00:03:38]
18. Без бою [00:04:18]
19. Вiдчуваю (версiя-2) [00:03:56]
20. Вище неба [00:03:58]
21. Не питай [00:02:34]

Отчёт EAC

EAC extraction logfile from 14. June 2007, 15:26 for CD
Океан Ельзи / 1221
Used drive : ASUS CRW-5232AS Adapter: 1 ID: 1
Read mode : Secure with NO C2, accurate stream, disable cache
Read offset correction : 6
Overread into Lead-In and Lead-Out : No
Used output format : C:\Program Files\Monkey's Audio\wapet.exe (User Defined Encoder)
Additional command line options : %d -t "Artist=%a" -t "Title=%t" -t "Album=%g" -t "Year=%y" -t "Track=%n" -t "Genre=%m" "C:\Program Files\Monkey's Audio\mac.exe" %s %d -c4000
Other options :
Fill up missing offset samples with silence : Yes
Delete leading and trailing silent blocks : No
Installed external ASPI interface
Range status and errors
Selected range
Filename E:\!tracker\!2release\OKEAN_ELZY\2006 - (Compilation) - 1221\Okean Elzy - 1221.wav
Peak level 100.0 %
Range quality 100.0 %
CRC 00B6E451
Copy OK
No errors occured
End of status report

09 - Веселi, брате, часи настали... (сингл)

Исполнитель: Океан Ельзи
Альбом: Веселi, брате, часи настали... (сингл)
Тип релиза: Сингл [CDS]
Жанр: Rock
Дата выпуска: 2006
Страна: Украина
Формат: WV (image+cue)
Битрейт: 938 kbps
Продолжительность: 00:03:32
Треклист:
01. Веселi, брате, часи настали... [00:03:32]

Отчёт EAC

EAC extraction logfile from 3. March 2007, 11:10 for CD
Океан Ельзи / Веселi, брате, часи настали... (сингл)
Used drive : ASUS CRW-5232AS Adapter: 1 ID: 1
Read mode : Secure with NO C2, accurate stream, disable cache
Read offset correction : 6
Overread into Lead-In and Lead-Out : No
Used output format : C:\Program Files\Monkey's Audio\wapet.exe (User Defined Encoder)
Additional command line options : %d -t "Artist=%a" -t "Title=%t" -t "Album=%g" -t "Year=%y" -t "Track=%n" -t "Genre=%m" "C:\Program Files\Monkey's Audio\mac.exe" %s %d -c4000
Other options :
Fill up missing offset samples with silence : Yes
Delete leading and trailing silent blocks : No
Native Win32 interface for Win NT & 2000
Range status and errors
Selected range
Filename E:\!tracker\okean_elzy_2006_veseli_brate_chasy_nastaly\Okean Elzy - Veseli Brate Chasy Nastaly (CD Single).wav
Peak level 100.0 %
Range quality 100.0 %
CRC EFB26D10
Copy OK
No errors occured
End of status report

10 - Мiра

Исполнитель: Океан Ельзи
Альбом: Мiра
Тип релиза: Студийная запись
Жанр: Rock
Дата выпуска: 2007
Страна: Украина
Формат: WV (image+cue)
Битрейт: 947 kbps
Продолжительность: 00:40:48
Треклист:
01. Мiра [00:04:01]
02. День у день [00:02:54]
03. Хочу напитися тобою [00:03:40]
04. Пташка [00:02:43]
05. Зеленi очi [00:04:07]
06. Коли тобi важко [00:03:52]
07. Як довго [00:03:02]
08. Не можу без тебе [00:02:34]
09. Лелеки [00:04:03]
10. Ночi i днi [00:03:01]
11. Все буде добре [00:03:08]
12. Моя мала [00:03:37]

Отчёт EAC

EAC extraction logfile from 4. May 2007, 13:07 for CD
ЋЄҐ ­ ќ«м§Ё / Њiа
Used drive : HL-DT-STDVDRAM GSA-T10N Adapter: 1 ID: 0
Read mode : Secure with NO C2, accurate stream, disable cache
Read offset correction : 667
Overread into Lead-In and Lead-Out : No
Used output format : Monkey's Audio Lossless Encoder v3.99 DLL
High Lossless Compression
Other options :
Fill up missing offset samples with silence : Yes
Delete leading and trailing silent blocks : No
Native Win32 interface for Win NT & 2000
Range status and errors
Selected range
Filename E:\Okean Elzy - Mira.ape
Peak level 100.0 %
Range quality 100.0 %
CRC 90D8EC9E
Copy OK
No errors occured
End of status report

11 - Вибране...(Compilation)

Исполнитель: Океан Ельзи
Альбом: Вибране...
Тип релиза: Официальный сборник [Compilation]
Жанр: Rock
Дата выпуска: 2007
Страна: Украина
Формат: WV (image+cue)
Битрейт: 1007 kbps
Продолжительность: 01:16:00
Треклист:
01. Все буде добре [00:03:08]
02. Вище неба [00:03:57]
03. Вставай [00:02:54]
04. Холодно [00:03:50]
05. Зеленi очi [00:04:07]
06. Янанебiбув [00:03:14]
07. Без бою [00:04:17]
08. Вiдчуваю (версiя-2) [00:03:55]
09. Лелеки [00:04:03]
10. Друг (ч.2) [00:04:03]
11. Майже весна [00:04:09]
12. Там, де нас нема [00:03:26]
13. Поїзд 'чужа любов' [00:03:56]
14. Той день [00:03:54]
15. Вiдпусти [00:03:48]
16. Дiвчина з iншого життя [00:03:38]
17. Вулиця [00:04:46]
18. Не питай [00:02:35]
19. 911 (тихий океан) [00:03:37]
20. Вона пiдiйшла до вiкна [00:04:31]

Отчёт EAC

Exact Audio Copy V0.99 prebeta 3 from 28. July 2007
EAC extraction logfile from 9. February 2008, 17:11
Океан Ельзи / Вибране...
Used drive : ASUS CRW-5232AS Adapter: 1 ID: 1
Read mode : Secure
Utilize accurate stream : Yes
Defeat audio cache : Yes
Make use of C2 pointers : No
Read offset correction : 6
Overread into Lead-In and Lead-Out : No
Fill up missing offset samples with silence : Yes
Delete leading and trailing silent blocks : No
Null samples used in CRC calculations : Yes
Used interface : Installed external ASPI interface
Used output format : Monkey's Audio Lossless Encoder v3.99 DLL
Sample format : Normal Lossless Compression
TOC of the extracted CD
Track | Start | Length | Start sector | End sector
---------------------------------------------------------
1 | 0:00.00 | 3:08.40 | 0 | 14139
2 | 3:08.40 | 3:57.52 | 14140 | 31966
3 | 7:06.17 | 2:54.49 | 31967 | 45065
4 | 10:00.66 | 3:50.09 | 45066 | 62324
5 | 13:51.00 | 4:07.67 | 62325 | 80916
6 | 17:58.67 | 3:14.68 | 80917 | 95534
7 | 21:13.60 | 4:17.69 | 95535 | 114878
8 | 25:31.54 | 3:55.02 | 114879 | 132505
9 | 29:26.56 | 4:03.67 | 132506 | 150797
10 | 33:30.48 | 4:03.71 | 150798 | 169093
11 | 37:34.44 | 4:09.46 | 169094 | 187814
12 | 41:44.15 | 3:26.70 | 187815 | 203334
13 | 45:11.10 | 3:56.49 | 203335 | 221083
14 | 49:07.59 | 3:54.59 | 221084 | 238692
15 | 53:02.43 | 3:48.11 | 238693 | 255803
16 | 56:50.54 | 3:38.14 | 255804 | 272167
17 | 60:28.68 | 4:46.53 | 272168 | 293670
18 | 65:15.46 | 2:35.49 | 293671 | 305344
19 | 67:51.20 | 3:37.16 | 305345 | 321635
20 | 71:28.36 | 4:31.50 | 321636 | 342010
Range status and errors
Selected range
Filename E:\!tracker\!2release\OE\Okean Elzy - Vybrane.ape
Peak level 100.0 %
Range quality 99.9 %
Test CRC 7727A380
Copy CRC 7727A380
Copy OK
No errors occurred
End of status report

12 - Dolce Vita

Исполнитель: Океан Ельзи
Альбом: Dolce Vita
Тип релиза: Студийная запись
Жанр: Pop Rock
Дата выпуска: 2010
Страна: Украина
Формат: WV (image+cue)
Битрейт: 825 kbps
Продолжительность: 00:56:25
Треклист:
01. Онлайн [00:03:52]
02. Небо над Днiпром [00:04:16]
03. Надя [00:03:56]
04. Я так хочу... [00:04:41]
05. На лiнiї вогню [00:03:01]
06. Бiльше для нас [00:03:30]
07. Ордени [00:03:49]
08. З тобою [00:03:05]
09. Ще один день [00:04:13]
10. Королева [00:04:17]
11. 18 хвилин [00:04:23]
12. Компас [00:04:28]
13. Dolce Vita [00:05:10]
14. Ой, чий там кiнь стоїть (народна пiсня) [Bonus Track] [00:03:39]

Отчёт EAC

Exact Audio Copy V0.99 prebeta 5 from 4. May 2009
EAC extraction logfile from 16. March 2010, 9:20
Океан Ельзи / Dolce Vita
Used drive : ASUS CRW-5232AS Adapter: 3 ID: 1
Read mode : Secure
Utilize accurate stream : Yes
Defeat audio cache : Yes
Make use of C2 pointers : No
Read offset correction : 6
Overread into Lead-In and Lead-Out : No
Fill up missing offset samples with silence : Yes
Delete leading and trailing silent blocks : No
Null samples used in CRC calculations : Yes
Used interface : Installed external ASPI interface
Used output format : Monkey's Audio Lossless Encoder v3.99 DLL
Sample format : Fast Lossless Compression
TOC of the extracted CD
Track | Start | Length | Start sector | End sector
---------------------------------------------------------
1 | 0:00.00 | 3:52.28 | 0 | 17427
2 | 3:52.28 | 4:16.71 | 17428 | 36698
3 | 8:09.24 | 3:56.20 | 36699 | 54418
4 | 12:05.44 | 4:41.53 | 54419 | 75546
5 | 16:47.22 | 3:01.05 | 75547 | 89126
6 | 19:48.27 | 3:30.07 | 89127 | 104883
7 | 23:18.34 | 3:49.07 | 104884 | 122065
8 | 27:07.41 | 3:05.22 | 122066 | 135962
9 | 30:12.63 | 4:13.03 | 135963 | 154940
10 | 34:25.66 | 4:17.26 | 154941 | 174241
11 | 38:43.17 | 4:23.70 | 174242 | 194036
12 | 43:07.12 | 4:28.16 | 194037 | 214152
13 | 47:35.28 | 5:20.55 | 214153 | 238207
14 | 52:56.08 | 3:49.53 | 238208 | 255435
Range status and errors
Selected range
Filename Z:\!tracker\OKEAN_ELZY\OE 2010 Dolce Vita\Okean Elzy - Dolce Vita.ape
Peak level 98.8 %
Range quality 100.0 %
Test CRC 0D01A226
Copy CRC 0D01A226
Copy OK
No errors occurred
AccurateRip summary
End of status report

13 - Вночi

Исполнитель: Святослав Вакарчук
Альбом: Вночi
Тип релиза: Студийная запись
Жанр: Rock
Дата выпуска: 2008
Формат: FLAC (image+cue)
Битрейт: 793 kbps
Продолжительность: 00:43:31
Треклист:
01. Ой, поперед мене гори синi [00:04:37]
02. Не йди [00:05:16]
03. Бути з тобою [00:03:51]
04. Колискова [00:02:21]
05. Пiзно вночi [00:03:53]
06. Там, де лiто [00:03:46]
07. Дзвони [00:04:22]
08. Не опускай свої очi [00:03:33]
09. Чайка [00:03:49]
10. Така, як ти [00:03:48]
11. Wherever You Are (Bonus Track) [00:04:10]

Отчёт EAC

Exact Audio Copy V0.99 prebeta 4 from 23. January 2008
EAC extraction logfile from from 30. May 2013, 15:27
Святослав Вакарчук / Вночi
Used drive : HL-DT-STDVDRAM GSA-T10N Adapter: 1 ID: 0
Read mode : Secure
Utilize accurate stream : Yes
Defeat audio cache : Yes
Make use of C2 pointers : No
Read offset correction : 6
Overread into Lead-In and Lead-Out : No
Fill up missing offset samples with silence : Yes
Delete leading and trailing silent blocks : No
Null samples used in CRC calculations : Yes
Used interface : Installed external ASPI interface
Used output format : Monkey's Audio Lossless Encoder v3.99 DLL
Sample format : Normal Lossless Compression
TOC of the extracted CD
Track | Start | Length | Start sector | End sector
---------------------------------------------------------
1 | 0:00.00 | 4:37.68 | 0 | 20842
2 | 4:37.68 | 5:16.70 | 20843 | 44612
3 | 9:54.63 | 3:51.56 | 44613 | 61993
4 | 13:46.44 | 2:21.01 | 61994 | 72569
5 | 16:07.45 | 3:53.28 | 72570 | 90072
6 | 20:00.73 | 3:46.08 | 90073 | 107030
7 | 23:47.06 | 4:22.19 | 107031 | 126699
8 | 28:09.25 | 3:33.26 | 126700 | 142700
9 | 31:42.51 | 3:49.47 | 142701 | 159922
10 | 35:32.23 | 3:48.54 | 159923 | 177076
11 | 39:21.02 | 4:10.69 | 177077 | 195895
Range status and errors
Selected range
Filename Z:\!tracker\OKEAN_ELZY\2008 - (Solo - Svyatoslav Vakarchuk) - Vnochi\Svyatoslav Vakarchuk - Vnochi.ape
Peak level 97.7 %
Range quality 100.0 %
Test CRC 48E3933F
Copy CRC 48E3933F
Copy OK
No errors occurred
AccurateRip summary
Track 1 not present in database
Track 2 not present in database
Track 3 not present in database
Track 4 not present in database
Track 5 not present in database
Track 6 not present in database
Track 7 not present in database
Track 8 not present in database
Track 9 not present in database
Track 10 not present in database
Track 11 not present in database
None of the tracks are present in the AccurateRip database
End of status report

14 - Брюссель

Исполнитель: Святослав Вакарчук
Альбом: Брюссель
Тип релиза: Студийная запись
Жанр: Folk/Rock
Дата выпуска: 2011
Формат: FLAC (tracks)
Битрейт: 690-910 kbps
Продолжительность: 01:24:50
Треклист:
01. Airplane [00:03:18]
02. Адреналін [00:06:39]
03. Come To Me Baby [00:05:50]
04. Дощ [00:06:53]
05. Дай Мені Чистої Води [00:07:16]
06. Заплети (у свої коси ніч) [00:06:19]
07. Не Плач [00:09:24]
08. Зелений Чай [00:10:04]
09. Цунамі [00:07:44]
10. В Останній Момент [00:05:12]
11. Моя Планета [00:07:48]
12. Де Я [00:08:18]

Отчёт EAC

Exact Audio Copy V1.0 beta 3 from 29. August 2011
EAC extraction logfile from 30. May 2013, 08:15
Святослав Вакарчук / Брюссель
Used drive : HL-DT-STDVDRAM GSA-T10N Adapter: 1 ID: 0
Read mode : Secure
Utilize accurate stream : Yes
Defeat audio cache : Yes
Make use of C2 pointers : No
Read offset correction : 667
Overread into Lead-In and Lead-Out : No
Fill up missing offset samples with silence : Yes
Delete leading and trailing silent blocks : No
Null samples used in CRC calculations : Yes
Used interface : Native Win32 interface for Win NT & 2000
Gap handling : Appended to previous track
Used output format : User Defined Encoder
Selected bitrate : 768 kBit/s
Quality : High
Add ID3 tag : No
Command line compressor : C:\Program Files\Exact Audio Copy\FLAC\FLAC.EXE
Additional command line options : -V -8 -T "Genre=%genre%" -T "Artist=%artist%" -T "Title=%title%" -T "Album=%albumtitle%" -T "Date=%year%" -T "Tracknumber=%tracknr%" -T "Comment=%comment%" %source%
TOC of the extracted CD
Track | Start | Length | Start sector | End sector
---------------------------------------------------------
1 | 0:00.00 | 3:20.39 | 0 | 15038
2 | 3:20.39 | 2:56.34 | 15039 | 28272
3 | 6:16.73 | 3:27.61 | 28273 | 43858
4 | 9:44.59 | 3:39.11 | 43859 | 60294
5 | 13:23.70 | 3:10.71 | 60295 | 74615
6 | 16:34.66 | 4:43.23 | 74616 | 95863
7 | 21:18.14 | 5:03.11 | 95864 | 118599
8 | 26:21.25 | 3:53.15 | 118600 | 136089
9 | 30:14.40 | 2:37.31 | 136090 | 147895
10 | 32:51.71 | 3:55.10 | 147896 | 165530
11 | 36:47.06 | 4:10.08 | 165531 | 184288
12 | 40:57.14 | 3:41.12 | 184289 | 200875
Track 1
Filename C:\Users\TERN\Documents\Святослав Вакарчук - Брюссель\01. Airplane.wav
Pre-gap length 0:00:02.00
Peak level 100.0 %
Extraction speed 3.4 X
Track quality 99.9 %
Test CRC 35BA3503
Copy CRC 35BA3503
Copy OK
Track 2
Filename C:\Users\TERN\Documents\Святослав Вакарчук - Брюссель\02. Адреналін.wav
Pre-gap length 0:00:02.00
Peak level 100.0 %
Extraction speed 4.5 X
Track quality 100.0 %
Test CRC 4EB9A0AB
Copy CRC 4EB9A0AB
Copy OK
Track 3
Filename C:\Users\TERN\Documents\Святослав Вакарчук - Брюссель\03. Come To Me Baby.wav
Pre-gap length 0:00:02.00
Peak level 99.2 %
Extraction speed 4.0 X
Track quality 99.9 %
Test CRC 9E92E240
Copy CRC 9E92E240
Copy OK
Track 4
Filename C:\Users\TERN\Documents\Святослав Вакарчук - Брюссель\04. Дощ.wav
Pre-gap length 0:00:02.00
Peak level 98.9 %
Extraction speed 5.4 X
Track quality 100.0 %
Test CRC 46252F93
Copy CRC 46252F93
Copy OK
Track 5
Filename C:\Users\TERN\Documents\Святослав Вакарчук - Брюссель\05. Дай Мені Чистої Води.wav
Pre-gap length 0:00:02.00
Peak level 100.0 %
Extraction speed 5.6 X
Track quality 100.0 %
Test CRC B8D969DA
Copy CRC B8D969DA
Copy OK
Track 6
Filename C:\Users\TERN\Documents\Святослав Вакарчук - Брюссель\06. Заплети (у свої коси ніч).wav
Pre-gap length 0:00:02.00
Peak level 99.0 %
Extraction speed 6.2 X
Track quality 100.0 %
Test CRC AB31041A
Copy CRC AB31041A
Copy OK
Track 7
Filename C:\Users\TERN\Documents\Святослав Вакарчук - Брюссель\07. Не Плач.wav
Pre-gap length 0:00:02.00
Peak level 99.5 %
Extraction speed 6.7 X
Track quality 100.0 %
Test CRC 047837FF
Copy CRC 047837FF
Copy OK
Track 8
Filename C:\Users\TERN\Documents\Святослав Вакарчук - Брюссель\08. Зелений Чай.wav
Pre-gap length 0:00:02.00
Peak level 100.0 %
Extraction speed 6.8 X
Track quality 100.0 %
Test CRC 2E297762
Copy CRC 2E297762
Copy OK
Track 9
Filename C:\Users\TERN\Documents\Святослав Вакарчук - Брюссель\09. Цунамі.wav
Pre-gap length 0:00:02.00
Peak level 100.0 %
Extraction speed 6.6 X
Track quality 100.0 %
Test CRC D0E91EDB
Copy CRC D0E91EDB
Copy OK
Track 10
Filename C:\Users\TERN\Documents\Святослав Вакарчук - Брюссель\10. В Останній Момент.wav
Pre-gap length 0:00:02.00
Peak level 99.5 %
Extraction speed 7.2 X
Track quality 100.0 %
Test CRC CD372A16
Copy CRC CD372A16
Copy OK
Track 11
Filename C:\Users\TERN\Documents\Святослав Вакарчук - Брюссель\11. Моя Планета.wav
Pre-gap length 0:00:02.00
Peak level 100.0 %
Extraction speed 7.5 X
Track quality 100.0 %
Test CRC EDC33708
Copy CRC EDC33708
Copy OK
Track 12
Filename C:\Users\TERN\Documents\Святослав Вакарчук - Брюссель\12. Де Я.wav
Pre-gap length 0:00:02.00
Peak level 99.2 %
Extraction speed 7.6 X
Track quality 100.0 %
Test CRC 049A5C13
Copy CRC 049A5C13
Copy OK
No errors occurred
End of status report
---- CUETools DB Plugin V2.1.3
[CTDB TOCID: gek6zLC974tYwEBLgAzcXfGNgDc-] disk not present in database, Submit result: gek6zLC974tYwEBLgAzcXfGNgDc- has been uploaded
==== Log checksum F4E1CE8A91A9C991E90BB70DCB992605FDBEE6DA234A1FAEAA294498A1094C7F ====

15 - Земля

Исполнитель: Океан Ельзи
Альбом: Земля
Тип релиза: Студийная запись
Жанр: Rock
Дата выпуска: 2013
Формат: FLAC (tracks)
Битрейт: 766-975 kbps
Продолжительность: 01:30:14
Треклист:
01. З нею [00:04:59]
02. Стіна [00:03:28]
03. Бодегіта [00:06:58]
04. Незалежність [00:08:12]
05. Rendez-vous [00:06:34]
06. Стріляй [00:08:25]
07. Обійми [00:09:40]
08. Караван [00:07:30]
09. Джульєтта [00:07:46]
10. На небі [00:09:17]
11. Пори року [00:07:27]
12. Коли навколо ні душі... [00:09:52]

Отчёт EAC

Exact Audio Copy V1.0 beta 3 from 29. August 2011
EAC extraction logfile from 30. May 2013, 09:45
Океан Ельзи / Земля
Used drive : HL-DT-STDVDRAM GSA-T10N Adapter: 1 ID: 0
Read mode : Secure
Utilize accurate stream : Yes
Defeat audio cache : Yes
Make use of C2 pointers : No
Read offset correction : 6
Overread into Lead-In and Lead-Out : No
Fill up missing offset samples with silence : Yes
Delete leading and trailing silent blocks : No
Null samples used in CRC calculations : Yes
Used interface : Native Win32 interface for Win NT & 2000
Gap handling : Appended to previous track
Used output format : User Defined Encoder
Selected bitrate : 768 kBit/s
Quality : High
Add ID3 tag : No
Command line compressor : C:\Program Files (x86)\Exact Audio Copy\FLAC\FLAC.EXE
Additional command line options : -6 -V -T "ARTIST=%artist%" -T "TITLE=%title%" -T "ALBUM=%albumtitle%" -T "DATE=%year%" -T "TRACKNUMBER=%tracknr%" -T "GENRE=%genre%" -T "COMMENT=%comment%" -T "BAND=%albuminterpret%" -T "ALBUMARTIST=%albuminterpret%" -T "COMPOSER=%composer%" %haslyrics%--tag-from-file=LYRICS="%lyricsfile%"%haslyrics% -T "DISCNUMBER=%cdnumber%" -T "TOTALDISCS=%totalcds%" -T "TOTALTRACKS=%numtracks%" %hascover%--picture="%coverfile%"%hascover% %source% -o %dest%
TOC of the extracted CD
Track | Start | Length | Start sector | End sector
---------------------------------------------------------
1 | 0:00.00 | 4:59.43 | 0 | 22467
2 | 4:59.43 | 3:30.25 | 22468 | 38242
3 | 8:29.68 | 4:07.02 | 38243 | 56769
4 | 12:36.70 | 3:17.62 | 56770 | 71606
5 | 15:54.57 | 4:13.38 | 71607 | 90619
6 | 20:08.20 | 4:51.37 | 90620 | 112481
7 | 24:59.57 | 3:45.69 | 112482 | 129425
8 | 28:45.51 | 3:53.70 | 129426 | 146970
9 | 32:39.46 | 4:40.03 | 146971 | 167973
10 | 37:19.49 | 3:44.50 | 167974 | 184823
11 | 41:04.24 | 4:58.25 | 184824 | 207198
12 | 46:02.49 | 3:13.26 | 207199 | 221699
Track 1
Filename E:\Lossless\Океан Ельзи\2013. Земля\01. З нею.wav
Pre-gap length 0:00:02.00
Peak level 99.9 %
Extraction speed 4.5 X
Track quality 100.0 %
Test CRC 67F3B939
Copy CRC 67F3B939
Track not present in AccurateRip database
Copy OK
Track 2
Filename E:\Lossless\Океан Ельзи\2013. Земля\02. Стіна.wav
Peak level 99.9 %
Extraction speed 1.1 X
Track quality 100.0 %
Test CRC A44C3EB7
Copy CRC A44C3EB7
Track not present in AccurateRip database
Copy OK
Track 3
Filename E:\Lossless\Океан Ельзи\2013. Земля\03. Бодегіта.wav
Pre-gap length 0:00:02.06
Peak level 99.9 %
Extraction speed 1.2 X
Track quality 100.0 %
Test CRC A34C9A66
Copy CRC A34C9A66
Track not present in AccurateRip database
Copy OK
Track 4
Filename E:\Lossless\Океан Ельзи\2013. Земля\04. Незалежність.wav
Pre-gap length 0:00:01.07
Peak level 99.9 %
Extraction speed 1.3 X
Track quality 100.0 %
Test CRC 69163F5A
Copy CRC 69163F5A
Track not present in AccurateRip database
Copy OK
Track 5
Filename E:\Lossless\Океан Ельзи\2013. Земля\05. Rendez-vous.wav
Pre-gap length 0:00:01.26
Peak level 99.9 %
Extraction speed 1.4 X
Track quality 100.0 %
Test CRC A497E810
Copy CRC A497E810
Track not present in AccurateRip database
Copy OK
Track 6
Filename E:\Lossless\Океан Ельзи\2013. Земля\06. Стріляй.wav
Pre-gap length 0:00:01.35
Peak level 99.9 %
Extraction speed 1.4 X
Track quality 99.9 %
Test CRC C73B02D5
Copy CRC C73B02D5
Track not present in AccurateRip database
Copy OK
Track 7
Filename E:\Lossless\Океан Ельзи\2013. Земля\07. Обійми.wav
Pre-gap length 0:00:02.22
Peak level 99.3 %
Extraction speed 1.6 X
Track quality 100.0 %
Test CRC 4857E2D4
Copy CRC 4857E2D4
Track not present in AccurateRip database
Copy OK
Track 8
Filename E:\Lossless\Океан Ельзи\2013. Земля\08. Караван.wav
Pre-gap length 0:00:01.08
Peak level 99.9 %
Extraction speed 1.7 X
Track quality 100.0 %
Test CRC F9F9626C
Copy CRC F9F9626C
Track not present in AccurateRip database
Copy OK
Track 9
Filename E:\Lossless\Океан Ельзи\2013. Земля\09. Джульєтта.wav
Pre-gap length 0:00:01.04
Peak level 99.9 %
Extraction speed 1.8 X
Track quality 100.0 %
Test CRC 717FF439
Copy CRC 717FF439
Track not present in AccurateRip database
Copy OK
Track 10
Filename E:\Lossless\Океан Ельзи\2013. Земля\10. На небі.wav
Pre-gap length 0:00:02.17
Peak level 100.0 %
Extraction speed 1.8 X
Track quality 100.0 %
Test CRC F7E5081E
Copy CRC F7E5081E
Track not present in AccurateRip database
Copy OK
Track 11
Filename E:\Lossless\Океан Ельзи\2013. Земля\11. Пори року.wav
Pre-gap length 0:00:02.19
Peak level 99.5 %
Extraction speed 2.0 X
Track quality 100.0 %
Test CRC F7C9FC22
Copy CRC F7C9FC22
Track not present in AccurateRip database
Copy OK
Track 12
Filename E:\Lossless\Океан Ельзи\2013. Земля\12. Коли навколо ні душі....wav
Pre-gap length 0:00:04.12
Peak level 88.4 %
Extraction speed 1.9 X
Track quality 100.0 %
Test CRC 98927BC9
Copy CRC 98927BC9
Track not present in AccurateRip database
Copy OK
None of the tracks are present in the AccurateRip database
No errors occurred
End of status report
==== Log checksum 1D67BBDB382E8F2ED5FAEF781EF35825D553114A175BF27721ADAA0014301FB3 ====
------------------------------------------------------------
Exact Audio Copy V1.0 beta 3 from 29. August 2011
EAC extraction logfile from 25. May 2013, 16:56
Океан Ельзи / Земля
Used drive : HL-DT-STDVDRAM GH24NS95 Adapter: 0 ID: 0
Read mode : Secure
Utilize accurate stream : Yes
Defeat audio cache : Yes
Make use of C2 pointers : No
Read offset correction : 6
Overread into Lead-In and Lead-Out : No
Fill up missing offset samples with silence : Yes
Delete leading and trailing silent blocks : No
Null samples used in CRC calculations : Yes
Used interface : Native Win32 interface for Win NT & 2000
Gap handling : Appended to previous track
Used output format : User Defined Encoder
Selected bitrate : 768 kBit/s
Quality : High
Add ID3 tag : No
Command line compressor : C:\Program Files (x86)\Exact Audio Copy\FLAC\FLAC.EXE
Additional command line options : -6 -V -T "ARTIST=%artist%" -T "TITLE=%title%" -T "ALBUM=%albumtitle%" -T "DATE=%year%" -T "TRACKNUMBER=%tracknr%" -T "GENRE=%genre%" -T "COMMENT=%comment%" -T "BAND=%albuminterpret%" -T "ALBUMARTIST=%albuminterpret%" -T "COMPOSER=%composer%" %haslyrics%--tag-from-file=LYRICS="%lyricsfile%"%haslyrics% -T "DISCNUMBER=%cdnumber%" -T "TOTALDISCS=%totalcds%" -T "TOTALTRACKS=%numtracks%" %hascover%--picture="%coverfile%"%hascover% %source% -o %dest%
TOC of the extracted CD
Track | Start | Length | Start sector | End sector
---------------------------------------------------------
1 | 0:00.00 | 4:59.43 | 0 | 22467
2 | 4:59.43 | 3:30.25 | 22468 | 38242
3 | 8:29.68 | 4:07.02 | 38243 | 56769
4 | 12:36.70 | 3:17.62 | 56770 | 71606
5 | 15:54.57 | 4:13.38 | 71607 | 90619
6 | 20:08.20 | 4:51.37 | 90620 | 112481
7 | 24:59.57 | 3:45.69 | 112482 | 129425
8 | 28:45.51 | 3:53.70 | 129426 | 146970
9 | 32:39.46 | 4:40.03 | 146971 | 167973
10 | 37:19.49 | 3:44.50 | 167974 | 184823
11 | 41:04.24 | 4:58.25 | 184824 | 207198
12 | 46:02.49 | 3:13.26 | 207199 | 221699
Track 1
Filename E:\Lossless\Океан Ельзи\2013. Земля\01. З нею.wav
Pre-gap length 0:00:02.00
Peak level 99.9 %
Extraction speed 4.5 X
Track quality 100.0 %
Test CRC 67F3B939
Copy CRC 67F3B939
Track not present in AccurateRip database
Copy OK
Track 2
Filename E:\Lossless\Океан Ельзи\2013. Земля\02. Стіна.wav
Peak level 99.9 %
Extraction speed 1.1 X
Track quality 100.0 %
Test CRC A44C3EB7
Copy CRC A44C3EB7
Track not present in AccurateRip database
Copy OK
Track 3
Filename E:\Lossless\Океан Ельзи\2013. Земля\03. Бодегіта.wav
Pre-gap length 0:00:02.06
Peak level 99.9 %
Extraction speed 1.2 X
Track quality 100.0 %
Test CRC A34C9A66
Copy CRC A34C9A66
Track not present in AccurateRip database
Copy OK
Track 4
Filename E:\Lossless\Океан Ельзи\2013. Земля\04. Незалежність.wav
Pre-gap length 0:00:01.07
Peak level 99.9 %
Extraction speed 1.3 X
Track quality 100.0 %
Test CRC 69163F5A
Copy CRC 69163F5A
Track not present in AccurateRip database
Copy OK
Track 5
Filename E:\Lossless\Океан Ельзи\2013. Земля\05. Rendez-vous.wav
Pre-gap length 0:00:01.26
Peak level 99.9 %
Extraction speed 1.4 X
Track quality 100.0 %
Test CRC A497E810
Copy CRC A497E810
Track not present in AccurateRip database
Copy OK
Track 6
Filename E:\Lossless\Океан Ельзи\2013. Земля\06. Стріляй.wav
Pre-gap length 0:00:01.35
Peak level 99.9 %
Extraction speed 1.4 X
Track quality 99.9 %
Test CRC C73B02D5
Copy CRC C73B02D5
Track not present in AccurateRip database
Copy OK
Track 7
Filename E:\Lossless\Океан Ельзи\2013. Земля\07. Обійми.wav
Pre-gap length 0:00:02.22
Peak level 99.3 %
Extraction speed 1.6 X
Track quality 100.0 %
Test CRC 4857E2D4
Copy CRC 4857E2D4
Track not present in AccurateRip database
Copy OK
Track 8
Filename E:\Lossless\Океан Ельзи\2013. Земля\08. Караван.wav
Pre-gap length 0:00:01.08
Peak level 99.9 %
Extraction speed 1.7 X
Track quality 100.0 %
Test CRC F9F9626C
Copy CRC F9F9626C
Track not present in AccurateRip database
Copy OK
Track 9
Filename E:\Lossless\Океан Ельзи\2013. Земля\09. Джульєтта.wav
Pre-gap length 0:00:01.04
Peak level 99.9 %
Extraction speed 1.8 X
Track quality 100.0 %
Test CRC 717FF439
Copy CRC 717FF439
Track not present in AccurateRip database
Copy OK
Track 10
Filename E:\Lossless\Океан Ельзи\2013. Земля\10. На небі.wav
Pre-gap length 0:00:02.17
Peak level 100.0 %
Extraction speed 1.8 X
Track quality 100.0 %
Test CRC F7E5081E
Copy CRC F7E5081E
Track not present in AccurateRip database
Copy OK
Track 11
Filename E:\Lossless\Океан Ельзи\2013. Земля\11. Пори року.wav
Pre-gap length 0:00:02.19
Peak level 99.5 %
Extraction speed 2.0 X
Track quality 100.0 %
Test CRC F7C9FC22
Copy CRC F7C9FC22
Track not present in AccurateRip database
Copy OK
Track 12
Filename E:\Lossless\Океан Ельзи\2013. Земля\12. Коли навколо ні душі....wav
Pre-gap length 0:00:04.12
Peak level 88.4 %
Extraction speed 1.9 X
Track quality 100.0 %
Test CRC 98927BC9
Copy CRC 98927BC9
Track not present in AccurateRip database
Copy OK
None of the tracks are present in the AccurateRip database
No errors occurred
End of status report
==== Log checksum 1D67BBDB382E8F2ED5FAEF781EF35825D553114A175BF27721ADAA0014301FB3 ====

16 - Dolce Vita (Remastered)

Исполнитель: Океан Ельзи
Альбом: Dolce Vita (Remastered)
Тип релиза: Студийная запись
Страна: Украина
Дата выпуска: 2010
Жанр: Rock
Формат: APE (image+cue)
Битрейт: 762 kbps
Продолжительность: 00:56:45
Треклист:
01. Онлайн [00:03:52]
02. Небо над днiпром [00:04:16]
03. Надя [00:03:56]
04. Я так хочу... [00:04:41]
05. На лінії вогню [00:03:01]
06. Бiльше для нас [00:03:30]
07. Ордени [00:03:49]
08. З тобою [00:03:05]
09. Ще один день [00:04:13]
10. Королева [00:04:17]
11. 18 хвилин [00:04:23]
12. Компас [00:04:28]
13. Dolce Vita [00:05:20]
14. Ой, чий там кінь стоїть (народна пісня) [00:03:49]

Отчёт EAC

Exact Audio Copy V0.99 prebeta 5 from 4. May 2009
Отчёт EAC об извлечении, выполненном 6. декабря 2010, 12:45
Океан Ельзи / Dolce Vita (Remastered)
Дисковод: Optiarc DVD RW AD-7200A Adapter: 0 ID: 0
Режим чтения : Достоверность
Использование точного потока : Да
Отключение кэша аудио : Да
Использование указателей C2 : Нет
Коррекция смещения при чтении : 48
Способность читать области Lead-in и Lead-out : Нет
Заполнение пропущенных сэмплов тишиной : Да
Удаление блоков с тишиной в начале и конце : Нет
При вычислениях CRC использовались нулевые сэмплы : Да
Интерфейс : Встроенный Win32-интерфейс для Win NT/2000
Выходной формат : Monkey's Audio (без потерь)
Выбранный битрейт : Extra High Lossless Compression
Качество : Высокий
Добавление ID3-тэга : Да
Утилита сжатия : C:\Program Files\Monkey's Audio\MAC.exe
TOC извлечённого CD
Трек | Старт | Длительность | Начальный сектор | Конечный сектор
---------------------------------------------------------------------
1 | 0:00.00 | 3:52.72 | 0 | 17471
2 | 3:52.72 | 4:16.29 | 17472 | 36700
3 | 8:09.26 | 3:56.20 | 36701 | 54420
4 | 12:05.46 | 4:41.52 | 54421 | 75547
5 | 16:47.23 | 3:01.06 | 75548 | 89128
6 | 19:48.29 | 3:30.07 | 89129 | 104885
7 | 23:18.36 | 3:49.05 | 104886 | 122065
8 | 27:07.41 | 3:05.21 | 122066 | 135961
9 | 30:12.62 | 4:13.06 | 135962 | 154942
10 | 34:25.68 | 4:17.26 | 154943 | 174243
11 | 38:43.19 | 4:23.70 | 174244 | 194038
12 | 43:07.14 | 4:28.16 | 194039 | 214154
13 | 47:35.30 | 5:20.53 | 214155 | 238207
14 | 52:56.08 | 3:49.57 | 238208 | 255439
Характеристики диапазона извлечения и сообщения об ошибках
Выбранный диапазон
Имя файла D:\Океан Ельзи - Dolce Vita (Remastered).wav
Пиковый уровень 100.0 %
Качество диапазона 100.0 %
CRC копии B4D626AB
Копирование... OK
Ошибок не произошло
Конец отчёта

17 - Найкраще (Compilation)

CD1

Исполнитель: Океан Ельзи
Альбом: Найкраще
Жанр: Rock
Дата выпуска: 2014
Формат: FLAC (image+cue)
Битрейт: 963 kbps
Продолжительность: 01:06:24
Треклист:
01. Там Де Нас Нема [00:03:33]
02. Ластiвка З Твого Мiста [00:03:07]
03. Той День [00:03:58]
04. Мало Менi [00:05:06]
05. Сосни [00:04:31]
06. Вiдпусти [00:03:52]
07. 911 [00:03:27]
08. Я До Тебе [00:04:49]
09. Друг [00:04:04]
10. Ти Собi Сама [00:03:49]
11. Квiтка [00:04:15]
12. Вставай [00:02:54]
13. Isn’t It Сон [00:03:40]
14. Коко Шанель [00:03:55]
15. Кiшка [00:03:51]
16. Дiвчина (з iншого життя) [00:03:38]
17. Для Тебе [00:03:49]

Отчёт EAC

Exact Audio Copy V1.0 beta 3 from 29. August 2011
EAC extraction logfile from 11. July 2014, 19:12
Океан Ельзи / Найкраще
Used drive : ATAPI iHAS124 B Adapter: 4 ID: 0
Read mode : Secure
Utilize accurate stream : Yes
Defeat audio cache : Yes
Make use of C2 pointers : No
Read offset correction : 6
Overread into Lead-In and Lead-Out : No
Fill up missing offset samples with silence : Yes
Delete leading and trailing silent blocks : No
Null samples used in CRC calculations : Yes
Used interface : Native Win32 interface for Win NT & 2000
Used output format : Internal WAV Routines
Sample format : 44.100 Hz; 16 Bit; Stereo
TOC of the extracted CD
Track | Start | Length | Start sector | End sector
---------------------------------------------------------
1 | 0:00.00 | 3:35.01 | 0 | 16125
2 | 3:35.01 | 3:09.12 | 16126 | 30312
3 | 6:44.13 | 4:00.32 | 30313 | 48344
4 | 10:44.45 | 5:08.30 | 48345 | 71474
5 | 15:53.00 | 4:33.54 | 71475 | 92003
6 | 20:26.54 | 3:54.34 | 92004 | 109587
7 | 24:21.13 | 3:29.42 | 109588 | 125304
8 | 27:50.55 | 4:51.09 | 125305 | 147138
9 | 32:41.64 | 4:06.07 | 147139 | 165595
10 | 36:47.71 | 3:51.27 | 165596 | 182947
11 | 40:39.23 | 4:17.01 | 182948 | 202223
12 | 44:56.24 | 2:56.48 | 202224 | 215471
13 | 47:52.72 | 3:42.03 | 215472 | 232124
14 | 51:35.00 | 3:57.51 | 232125 | 249950
15 | 55:32.51 | 3:53.05 | 249951 | 267430
16 | 59:25.56 | 3:40.54 | 267431 | 283984
17 | 63:06.35 | 3:51.55 | 283985 | 301364
Range status and errors
Selected range
Filename I:\Українська музика\Океан Ельзи - Найкраще (2014)\Частина1\Океан Ельзи - Найкраще (2014) CD1.wav
Peak level 98.6 %
Extraction speed 2.0 X
Range quality 99.9 %
Test CRC 98B39260
Copy CRC 98B39260
Copy OK
No errors occurred
AccurateRip summary
Track 1 not present in database
Track 2 not present in database
Track 3 not present in database
Track 4 not present in database
Track 5 not present in database
Track 6 not present in database
Track 7 not present in database
Track 8 not present in database
Track 9 not present in database
Track 10 not present in database
Track 11 not present in database
Track 12 not present in database
Track 13 not present in database
Track 14 not present in database
Track 15 not present in database
Track 16 not present in database
Track 17 not present in database
None of the tracks are present in the AccurateRip database
End of status report
---- CUETools DB Plugin V2.1.3
[CTDB TOCID: pg4UNb.HvCswG202dwRfHQhYQsI-] disk not present in database, Submit result: pg4UNb.HvCswG202dwRfHQhYQsI- has been uploaded
==== Log checksum F14CE2C7F7099F51D20435239135021C7A0E25E1D1FF97600AF438B5F7694F6E ====

CD2

Исполнитель: Океан Ельзи
Альбом: Найкраще
Тип релиза: Официальный сборник [Compilation]
Жанр: Rock
Дата выпуска: 2014
Формат: CUE (image+cue)
Битрейт: 964 kbps
Продолжительность: 00:00:-34
Треклист:
01. Майже весна [00:04:12]
02. Холодно [00:04:32]
03. Вище неба [00:03:59]
04. Без бою [00:04:19]
05. Вiдчуваю [00:04:16]
06. Не питай [00:02:37]
07. Зеленi очi [00:04:08]
08. Я їду додому [00:01:59]
09. Все буде добре [00:03:10]
10. Я так хочу [00:04:41]
11. Бiльше для Нас [00:03:30]
12. Dolce Vita [00:05:20]
13. Rendez-Vous [00:04:13]
14. Стрiляй [00:04:51]
15. Обiйми [00:03:45]
16. Джульєта [00:04:40]
17. На Небi [00:03:46]

Отчёт EAC

Exact Audio Copy V1.0 beta 3 from 29. August 2011
EAC extraction logfile from 11. July 2014, 20:51
Океан Ельзи / Найкраще
Used drive : ATAPI iHAS124 B Adapter: 4 ID: 0
Read mode : Secure
Utilize accurate stream : Yes
Defeat audio cache : Yes
Make use of C2 pointers : No
Read offset correction : 6
Overread into Lead-In and Lead-Out : No
Fill up missing offset samples with silence : Yes
Delete leading and trailing silent blocks : No
Null samples used in CRC calculations : Yes
Used interface : Native Win32 interface for Win NT & 2000
Used output format : Internal WAV Routines
Sample format : 44.100 Hz; 16 Bit; Stereo
TOC of the extracted CD
Track | Start | Length | Start sector | End sector
---------------------------------------------------------
1 | 0:00.00 | 4:14.43 | 0 | 19092
2 | 4:14.43 | 4:34.12 | 19093 | 39654
3 | 8:48.55 | 4:01.19 | 39655 | 57748
4 | 12:49.74 | 4:21.71 | 57749 | 77394
5 | 17:11.70 | 4:18.08 | 77395 | 96752
6 | 21:30.03 | 2:39.32 | 96753 | 108709
7 | 24:09.35 | 4:10.20 | 108710 | 127479
8 | 28:19.55 | 2:01.24 | 127480 | 136578
9 | 30:21.04 | 3:12.59 | 136579 | 151037
10 | 33:33.63 | 4:43.53 | 151038 | 172315
11 | 38:17.41 | 3:32.07 | 172316 | 188222
12 | 41:49.48 | 5:22.55 | 188223 | 212427
13 | 47:12.28 | 4:15.38 | 212428 | 231590
14 | 51:27.66 | 4:53.37 | 231591 | 253602
15 | 56:21.28 | 3:47.69 | 253603 | 270696
16 | 60:09.22 | 4:42.03 | 270697 | 291849
17 | 64:51.25 | 3:44.50 | 291850 | 308699
Range status and errors
Selected range
Filename I:\Українська музика\Океан Ельзи - Найкраще (2014)\Частина2\Океан Ельзи - Найкраще (2014) CD2.wav
Peak level 100.0 %
Extraction speed 2.0 X
Range quality 100.0 %
Test CRC 45CAE56F
Copy CRC 45CAE56F
Copy OK
No errors occurred
AccurateRip summary
Track 1 not present in database
Track 2 not present in database
Track 3 not present in database
Track 4 not present in database
Track 5 not present in database
Track 6 not present in database
Track 7 not present in database
Track 8 not present in database
Track 9 not present in database
Track 10 not present in database
Track 11 not present in database
Track 12 not present in database
Track 13 not present in database
Track 14 not present in database
Track 15 not present in database
Track 16 not present in database
Track 17 not present in database
None of the tracks are present in the AccurateRip database
End of status report
---- CUETools DB Plugin V2.1.3
[CTDB TOCID: jD7YeiFJ1xUsLRRnTIaORtRAlgA-] disk not present in database, Submit result: jD7YeiFJ1xUsLRRnTIaORtRAlgA- has been uploaded
==== Log checksum 745DC13461FABFC0E0DAA42FEEF79D576D25D35FAA077928070A96721F769E4B ====
-Раздача обновлена 08.09.14 - добавлен альбом 2014 года "Найкраще"- - -

_________________


Last edited by Theseus on 2011-07-03 11:23; edited 2 times in total
Other forum [Profile] [PM]
Display posts from previous:    
Reply to topic

The time now is: Today 01:15

All times are GMT + 3 Hours



You cannot post new topics in this forum
You cannot reply to topics in this forum
You cannot edit your posts in this forum
You cannot delete your posts in this forum
You cannot vote in polls in this forum
You cannot attach files in this forum
You cannot download files in this forum