Сегодня идет свободное скачивание без начисления Download

Национальный бархат / National Velvet (1944) DVDRip

Ответить на тему
 
Автор
Сообщение

UndegraundMen ®

Стаж: 3 года 9 месяцев

Сообщений: 28329

Торрент-статистика

Пост 15-Мар-2013 15:52

[Цитировать]

Национальный бархат / National Velvet (1944) DVDRip- Русское название: Национальный бархат
Оригинальное название: National Velvet
Год выпуска: 1944
Жанр: Драма, Семейный
Описание фильма:
Англия. 20-е года XX века. Юная Вельвет Браун выигрывает лошадь по кличке Пай в лотерею и решает выставить скакуна в Великих Национальных Скачках с препятствиями. Ее семейство — против идеи, но скоро соглашаются и к счастью юной наездницы именитый в прошлом жокей Ми Тэйлор решается стать её тренером перед соревнованиями. Мать девочки тратит все сбережения, подготавливая Вельвет к скачкам. Девочка стрижется под юношу с целью выдать себя за жокея, по правилам женскому полу запрещено участвовать в скачках. Девочка вместе с любимой лошадью приходит к финишу первой, но её сразу же дисквалифицируют и лишают титула и приза.
Режиссер: Клэренс Браун / Clarence Brown
Актеры: Элизабет Тейлор, Микки Руни, Анджела Лэнсбери, Дональд Крисп, Энн Ревир
Продолжительность: 02:03:19
Перевод: Многоголосый закадровый

Дата мировой премьеры: 14.12.1944
Видеокодек: Xvid
Битрейт видео: ~1192 kb/s
Размер кадра: 656 x 480
Качество видео: DVDRip
Аудиокодек: MP3
Аудио:
1. 192 kb/s cbr 2 канала Русский
2. 192 kb/s cbr 2 канала Английский

MediaInfo

Общее
Полное имя : Национальный бархат 1944.avi
Формат : AVI
Формат/Информация : Audio Video Interleave
Размер файла : 1,37 Гбайт
Продолжительность : 2 ч. 3 м.
Общий поток : 1591 Кбит/сек
Программа кодирования : FairUse Wizard
Библиотека кодирования : The best and REALLY easy backup tool
Видео
Идентификатор : 0
Формат : MPEG-4 Visual
Профиль формата : Advanced [email protected]
Параметр BVOP формата : 1
Параметр QPel формата : Нет
Параметр GMC формата : Без точки перехода
Параметр матрицы формата : Default (H.263)
Режим смешивания : Сжатый битовый поток
Идентификатор кодека : XVID
Идентификатор кодека/Подсказка : XviD
Продолжительность : 2 ч. 3 м.
Битрейт : 1192 Кбит/сек
Ширина : 656 пикселей
Высота : 480 пикселей
Соотношение сторон : 4:3
Частота кадров : 25,000 кадров/сек
Цветовое пространство : YUV
Субдискретизация насыщенности : 4:2:0
Битовая глубина : 8 бит
Тип развёртки : Прогрессивная
Метод сжатия : С потерями
Бит/(Пиксели*Кадры) : 0.151
Размер потока : 1,03 Гбайт (75%)
Библиотека кодирования : XviD 1.1.0 (UTC 2005-11-22)
Аудио #1
Идентификатор : 1
Формат : MPEG Audio
Версия формата : Version 1
Профиль формата : Layer 3
Режим : Joint stereo
Расширение режима : MS Stereo
Идентификатор кодека : 55
Идентификатор кодека/Подсказка : MP3
Продолжительность : 2 ч. 3 м.
Вид битрейта : Постоянный
Битрейт : 192 Кбит/сек
Каналы : 2 канала
Частота : 48,0 КГц
Метод сжатия : С потерями
Размер потока : 169 Мбайт (12%)
Выравнивание : Соединение по промежуткам
Продолжительность промежутка : 40 мс. (1,00 видеокадр)
Время предзагрузки промежутка : 504 мс.
Библиотека кодирования : LAME3.97b
Настройки программы : -m j -V 4 -q 2 -lowpass 18.6 -b 192
Аудио #2
Идентификатор : 2
Формат : MPEG Audio
Версия формата : Version 1
Профиль формата : Layer 3
Режим : Joint stereo
Расширение режима : MS Stereo
Идентификатор кодека : 55
Идентификатор кодека/Подсказка : MP3
Продолжительность : 2 ч. 3 м.
Вид битрейта : Постоянный
Битрейт : 192 Кбит/сек
Каналы : 2 канала
Частота : 48,0 КГц
Метод сжатия : С потерями
Размер потока : 169 Мбайт (12%)
Выравнивание : Соединение по промежуткам
Продолжительность промежутка : 40 мс. (1,00 видеокадр)
Время предзагрузки промежутка : 504 мс.
Библиотека кодирования : LAME3.97b
Настройки программы : -m j -V 4 -q 2 -lowpass 18.6 -b 192
Скриншоты:

Рецензия, отзыв о фильме

Прекрасный и теплый фильм для всей семьи, первая звездная роль Элизабет Тейлор. Одиннадцатилетняя актриса восхитительно сыграла юную наездницу и стала любимицей Америки на долгие годы.
Вне форума [Профиль] [ЛС]
Показать сообщения:    
Ответить на тему

Текущее время: Сегодня 14:52

Часовой пояс: GMT + 3



Вы не можете начинать темы
Вы не можете отвечать на сообщения
Вы не можете редактировать свои сообщения
Вы не можете удалять свои сообщения
Вы не можете голосовать в опросах
Вы не можете прикреплять файлы к сообщениям
Вы не можете скачивать файлы