Сегодня идет свободное скачивание без начисления Download

Создавая женщину/Модельерша/Designing Woman (1957) DVDRip [H.264]

Ответить на тему
 
Автор
Сообщение

UndegraundMen ®

Стаж: 3 года 9 месяцев

Сообщений: 28329

Торрент-статистика

Пост 15-Мар-2013 15:52

[Цитировать]

Создавая женщину/Модельерша / Designing Woman (1957) DVDRip [H.264] -«His world is guys and dolls! Her world is gowns and glamor!»- Русское название: Создавая женщину/Модельерша
Оригинальное название: Designing Woman
Год выпуска: 1957
Жанр: Мелодрама, Комедия
Страна: США
Производство: Metro-Goldwyn-Mayer (MGM)
Описание фильма:
Когда Майк Хаген и Марилла Браун женятся после бурного романа на восточном побережья и возвращаются в Нью-Йорк, то обнаруживают, что между ними почти ничего общего. Она — модельер, живущая в шикарной квартире и её друзья — актёры, художники и богема. Он — спортивный обозреватель, обожающий бокс и скачки. Они любят друг друга и пытаются найти компромисс. Неизвестно, что из этого вышло бы, если бы не бандиты…
Режиссер: Винсенте Миннелли
Сценарий: Джордж Уэллс
Продюсер: Дор Шэри, Джордж Уэллс, Роджер Эденс
Актеры: Грегори Пек, Лорен Бэколл, Долорес Грэй, Сэм Ливин, Том Хелмор, Мики Шонесси, Джесси Уайт, Чак Коннорс, Эдвард Платт, Элви Мур
Продолжительность: 01:52:52
Перевод: Многоголосый закадровый (СВ Дубль по заказу ГТРК Культура)
Субтитры: Отсутствуют
imdb kinopoisk
Дата мировой премьеры: 16 мая 1957
Видеокодек: MPEG-4 AVC/H.264
Битрейт видео: ~2249 Кбит/сек
Размер кадра: 720x288
Качество видео: DVDRip
Аудиокодек: AC3 2.0
Битрейт аудио: 192 kbps

Реценция с кинопоиска от Stargazer:

Эта сумасбродная комедия кому угодно прибавит лишние годы жизни, потому что смеяться приходится часто и от души. Фильм захватывает внимание уже с первых минут, когда несколько различных по полу и статусу людей вспоминают о каком-то нелепом событии, в котором каждый сыграл свою хорошую или плохую роль. А дальше начинается нечто…
Режиссер применил очень выигрышную манеру повествования — в форме рассказа с прологом, эпилогом и чтением вслух актерами мыслей своих героев. Нечто подобное можно увидеть в «Двенадцати стульях» М. Захарова, которые как известно нельзя смотреть, не надорвав от смеха живот. Американцы за 20 лет до этого показали высший класс, доказав, что тоже способны создавать настоящие комедии.
Великолепный сценарий, за который эта лента по праву удостоилась «Оскара», интереснейшие сценки и персонажи (чего стоит один боксер-телохранитель, спавший с открытыми глазами) превращают фильм в увлекательное зрелище, которое, к величайшему сожалению, упорно не желает длиться вечно.

Награды:

Оскар, 1958 год
Оскар, 1958 год
Победитель (1):
Лучший оригинальный сценарий

MediaInfo:

Общее
Уникальный идентификатор : 233926835234872828045009234266505834416 (0xAFFCAB6FFB5D488E808D4FF7E8EB6FB0)
Полное имя : D:\Downloads\Создавая женщину.mkv
Формат : Matroska
Версия формата : Version 4 / Version 2
Размер файла : 1,93 Гбайт
Продолжительность : 1 ч. 52 м.
Общий поток : 2443 Кбит/сек
Дата кодирования : UTC 2013-03-14 11:01:11
Программа кодирования : mkvmerge v6.0.0 ('Coming Up For Air') built on Jan 20 2013 09:52:00
Библиотека кодирования : libebml v1.3.0 + libmatroska v1.4.0
Видео
Идентификатор : 1
Формат : AVC
Формат/Информация : Advanced Video Codec
Профиль формата : [url=mailto:[email protected]][email protected][/url]
Параметр CABAC формата : Да
Параметр ReFrames формата : 8 кадров
Идентификатор кодека : V_MPEG4/ISO/AVC
Продолжительность : 1 ч. 52 м.
Битрейт : 2249 Кбит/сек
Ширина : 720 пикселей
Высота : 288 пикселей
Соотношение сторон : 2,500
Режим частоты кадров : Постоянный
Частота кадров : 25,000 кадров/сек
Цветовое пространство : YUV
Субдискретизация насыщенности : 4:2:0
Битовая глубина : 8 бит
Тип развёртки : Прогрессивная
Бит/(Пиксели*Кадры) : 0.434
Размер потока : 1,74 Гбайт (90%)
Заголовок : Designing Woman
Библиотека кодирования : x264 core 129 r2230 1cffe9f
Настройки программы : cabac=1 / ref=8 / deblock=1:-1:-1 / analyse=0x3:0x133 / me=umh / subme=6 / psy=1 / psy_rd=1.00:0.00 / mixed_ref=1 / me_range=16 / chroma_me=1 / trellis=2 / 8x8dct=1 / cqm=0 / deadzone=21,11 / fast_pskip=1 / chroma_qp_offset=-2 / threads=6 / lookahead_threads=1 / sliced_threads=0 / nr=0 / decimate=0 / interlaced=0 / bluray_compat=0 / constrained_intra=0 / bframes=6 / b_pyramid=2 / b_adapt=2 / b_bias=0 / direct=3 / weightb=1 / open_gop=0 / weightp=2 / keyint=250 / keyint_min=25 / scenecut=40 / intra_refresh=0 / rc_lookahead=60 / rc=2pass / mbtree=1 / bitrate=2249 / ratetol=1.0 / qcomp=0.60 / qpmin=10 / qpmax=51 / qpstep=4 / cplxblur=20.0 / qblur=0.5 / ip_ratio=1.40 / aq=1:1.00
Язык : English
Default : Да
Forced : Нет
Аудио
Идентификатор : 2
Формат : AC-3
Формат/Информация : Audio Coding 3
Расширение режима : CM (complete main)
Параметр Endianness формата : Big
Идентификатор кодека : A_AC3
Продолжительность : 1 ч. 52 м.
Вид битрейта : Постоянный
Битрейт : 192 Кбит/сек
Каналы : 2 канала
Расположение каналов : Front: L R
Частота : 48,0 КГц
Битовая глубина : 16 бит
Метод сжатия : С потерями
Размер потока : 155 Мбайт (8%)
Заголовок : Многоголосый закадровый (СВ Дубль по заказу ГТРК Культура)
Язык : Russian
Default : Да
Forced : Нет
Скриншоты:                    
Вне форума [Профиль] [ЛС]
Похожие темы
Форум Тема Автор Торрент Отв. Посл. сообщение
./templates/default/images/folder_dl.gif Фильмы 2001-2010 Создатель Миров / World Builder (Bruce Branit) [2007 г., мелодрама, фантастика, HDRip] Jurchic
0 | 1

2 | 1299

7

2012-09-16 22:09
Jurchic Последнее
./templates/default/images/folder_dl.gif Обучающее видео Школа Программирования | HTML и CSS. Основы создания сайтов [2012] PCRec UndegraundMen
1 | 0

0 | 836

43

2013-04-04 00:03
UndegraundMen Последнее
./templates/default/images/folder_dl.gif Обучающее видео akmshik | Создание видео в After Effects на основе шаблонов (2016) PCRec [H.264/720p] UndegraundMen
1 | 0

0 | 369

5

2013-08-26 11:02
UndegraundMen Последнее
./templates/default/images/folder_dl.gif Обучающее видео Тимур Батыршинов | Создание и продажа Android приложений (2013) [PCRec] Omen
1 | 0

0 | 800

30

2014-04-19 21:58
Omen Последнее
./templates/default/images/folder_dl.gif Обучающее видео Lynda.com | Создание интерактивного PDF-журнала (2013) PCRec Omen
1 | 0

0 | 1897

42

2014-08-31 17:29
Omen Последнее
./templates/default/images/folder_dl.gif Обучающее видео Михаил Русаков | Заработок на создании сайтов под заказ (2015) PCRec Omen
1 | 0

0 | 924

58

2015-03-05 23:22
Omen Последнее
./templates/default/images/folder_dl.gif Обучающее видео [Zabolotskikh.com] Создание сайта на WordPress [2015, RUS] Omen
1 | 0

0 | 291

25

2015-03-16 12:00
Omen Последнее
./templates/default/images/folder_dl.gif Обучающее видео Дмитрий Зиновьев | Профессиональное создание интерьеров в 3DS MAX (2014) PCRec Omen
1 | 0

0 | 45

13

2015-05-09 22:02
Omen Последнее
./templates/default/images/folder_dl.gif Обучающее видео HTML Academy | Месячный онлайн-интенсив «Создание веб-интерфейсов с помощью HTML и CSS» (2015) PCRec Omen
0 | 1

0 | 80

24

2015-05-20 10:39
Omen Последнее
./templates/default/images/folder_dl.gif Обучающее видео Тренинг Как правильно создать Бланк коммерческого предложения [2014, Бизнес, RUS] (Видеоурок) Omen
1 | 0

0 | 399

9

2015-08-16 18:59
Omen Последнее
Показать сообщения:    
Ответить на тему

Текущее время: Сегодня 01:16

Часовой пояс: GMT + 3



Вы не можете начинать темы
Вы не можете отвечать на сообщения
Вы не можете редактировать свои сообщения
Вы не можете удалять свои сообщения
Вы не можете голосовать в опросах
Вы не можете прикреплять файлы к сообщениям
Вы не можете скачивать файлы