Сегодня идет свободное скачивание без начисления Download

Марни / Marnie (1964) BDRip

Ответить на тему
 
Автор
Сообщение

UndegraundMen ®

Стаж: 3 года 9 месяцев

Сообщений: 28329

Торрент-статистика

Пост 16-Мар-2013 01:14

[Цитировать]

Марни / Marnie (1964) BDRip
«Что скрывает Марни?»
- Русское название: Марни
Оригинальное название: Marnie
Год выпуска: 1964
Производство: США, Universal Pictures
Жанр: Триллер, драма, мелодрама, детектив
Перевод: Профессиональный (полное дублирование)
Субтитры: Отсутствуют
Режиссер: Альфред Хичкок
Сценарий: Джей Прессон Аллен, Уинстон Грэхэм
Актеры: Типпи Хедрен, Шон Коннери, Дайан Бэйкер, Мартин Габел, Луиз Лэтэм, Боб Суини, Милтон Селзер, Алан Напье, Генри Бекман, Эдит Эвансон, Мэриетт Хартли, Брюс Дерн, Мег Уайлли, Кимберли Бек, Эммалин Хенри, Альфред Хичкок, Мелоди Томас Скотт
Описание фильма:
Героиня фильма Марни Эдгар устраивается на работу в различные фирмы под чужим именем и, проработав некоторое время, исчезает с деньгами компаний, не оставляя никаких следов. Она неуловима, так как постоянно меняет не только имена, но и внешность. Марк Ратлэнд, деловой партнер одной из бывших жертв Марни, разоблачает ее, когда она устраивается к нему на работу. Но вместо того, чтобы сдать Марни полиции, Марк шантажом заставляет ее выйти за него замуж. Он узнает о глубоко сидящем в ней страхе перед мужчинами, сексом, грозами и красным цветом…-imdb kinopoisk
Дата мировой премьеры: 9 июля 1964-Продолжительность: 02:10:23
Качество видео: BDRip
Видеокодек: XviD
Битрейт видео: 1399 Кбит/сек
Размер кадра: 672x368
Аудио : Русский, AC3, 2 ch, 192 Кбит/сек

Знаете ли вы, что...

  • Во время съемок между Хичкоком и Типпи Хедрен возник конфликт, он грозился разрушить её карьеру. А вскоре режиссер сделал пятилетней дочери актрисы Мелани (будущей Мелани Гриффит) незабываемый подарок — куклу, которая изображала её маму, лежащую в маленьком гробике. Несмотря на это, Типпи Хедрен называет «Марни» любимым фильмом в своей карьере.
  • Боссы Paramount предложили Хичкоку взять на главную роль Ли Ремик. Марни могли так же сыграть Ева Мария Сэйнт, Сьюзен Хэмпшир, Вера Майлз и жена режиссера Сидни Поллака Клэр Грисволд.
  • Камео режиссера — на пятой минуте Хичкок выходит из номера отеля и смотрит вслед удаляющейся по коридору Марни Эдгар (Типпи Хедрен) и слуге с покупками, а потом поворачивает голову к зрителям.
  • Дайан Бейкер не разрешили прочитать сценарий, пока она не дала свое согласие на участие. Ей было известно только три вещи — фильм называется «Марни», ставит его Альфред Хичкок, а главную роль играет Типпи Хедрен.
  • Изначально Эван Хантер адаптировал роман Уинстона Грэхэма. Хантер настаивал на том, чтобы из сценария убрали эпизод, в котором Марк насилует Марни, поскольку это низко и Марк потеряет уважение в глазах аудитории. Хичкок уволил его и нанял Джей Прессон Аллен, она решила, что поведение персонажа и обаяние самого Шона Коннери в последствие «оправдает» Марка.
  • Альфред Хичкок хотел, чтобы Грейс Келли, тогда уже принцесса Монако, вернулась на большие экраны, исполнив главную роль в этом фильме. Но жители Монако и королевская семья была не в восторге от мысли, что Келли сыграет неуравновешенную воровку.
  • Сценарист Джей Прессон Аллен сделала увлечением Марка зоологию, потому что это является её собственным хобби, к тому же в фильме Марк на основе своих знаний подвергает психоанализу Марни.
  • Дайан Бейкер вспоминала, что при съемке эпизода, где героиня Бейкер подслушивает разговор Марни и Марка, Хичкок подошел к ней, положил руки на её лицо и буквально показал, какое он хочет от неё выражения лица в этой сцене.
  • Джозеф Стефано написал свою версию сценария, она была гораздо ближе к первоисточнику, и в ней присутствовали два персонажа, отсутствующие в фильме Хичкока: психотерапевт, к которому Марк отводит главную героиню, и Терри, сослуживец Марни, влюбленный в неё.
  • «Марни» — последний фильм, к которому Бернард Херрманн написал музыку (до него он семь раз сотрудничал с Хичкоком).
  • Луиз Лэтем, сыгравшую мать Марни, предложила Хичкоку Джей Прессон Аллен. Она и Луиз были одноклассницами в школе-интернате в Техасе.
  • Знаменитый биограф Дональд Спото в своей книге о Хичкоке «Обратная сторона гения» назвал «Марни» последним шедевром Хичкока.
  • Луиз Лэтем играет мать Типпи Хедрен, хотя Лэтем старше Хедрен всего на 8 лет.
  • В 2008 году журнал Vanity Fair организовал фотосессию, посвященную творчеству Хичкока. В образе Марни предстала актриса Наоми Уоттс.

MediaInfo

Код:
Общее
Полное имя                               : E:\Раздачи\Видео\Marni.1964.BDRip.avi
Формат                                   : AVI
Формат/Информация                        : Audio Video Interleave
Размер файла                             : 1,46 Гбайт
Продолжительность                        : 2 ч. 10 м.
Общий поток                              : 1601 Кбит/сек
Программа кодирования                    : VirtualDubMod 1.5.10.3 | [url=http://www.virtualdub-fr.org]www.virtualdub-fr.org[/url] || (build 2550/release)
Библиотека кодирования                   : VirtualDubMod build 2550/release
Видео
Идентификатор                            : 0
Формат                                   : MPEG-4 Visual
Профиль формата                          : Advanced [email protected]
Параметр BVOP формата                    : 1
Параметр QPel формата                    : Нет
Параметр GMC формата                     : Без точки перехода
Параметр матрицы формата                 : Выборочная
Идентификатор кодека                     : XVID
Идентификатор кодека/Подсказка           : XviD
Продолжительность                        : 2 ч. 10 м.
Битрейт                                  : 1399 Кбит/сек
Ширина                                   : 672 пикселя
Высота                                   : 368 пикселей
Соотношение сторон                       : 1,85:1
Частота кадров                           : 23,976 кадра/сек
Цветовое пространство                    : YUV
Субдискретизация насыщенности            : 4:2:0
Битовая глубина                          : 8 бит
Тип развёртки                            : Прогрессивная
Метод сжатия                             : С потерями
Бит/(Пиксели*Кадры)                      : 0.236
Размер потока                            : 1,27 Гбайт (87%)
Библиотека кодирования                   : XviD 64
Аудио
Идентификатор                            : 1
Формат                                   : AC-3
Формат/Информация                        : Audio Coding 3
Расширение режима                        : CM (complete main)
Параметр Endianness формата              : Big
Идентификатор кодека                     : 2000
Продолжительность                        : 2 ч. 10 м.
Вид битрейта                             : Постоянный
Битрейт                                  : 192 Кбит/сек
Каналы                                   : 2 канала
Расположение каналов                     : Front: L R
Частота                                  : 48,0 КГц
Битовая глубина                          : 16 бит
Метод сжатия                             : С потерями
Размер потока                            : 179 Мбайт (12%)
Выравнивание                             : Разделение по промежуткам
Продолжительность промежутка             : 42  мс. (1,00 видеокадр)
Время предзагрузки промежутка            : 500  мс.
Скриншоты:
         
         -Время раздачи: 9.00 - 23.00 (по мере возможности...)
Вне форума [Профиль] [ЛС]
Показать сообщения:    
Ответить на тему

Текущее время: Сегодня 22:49

Часовой пояс: GMT + 3



Вы не можете начинать темы
Вы не можете отвечать на сообщения
Вы не можете редактировать свои сообщения
Вы не можете удалять свои сообщения
Вы не можете голосовать в опросах
Вы не можете прикреплять файлы к сообщениям
Вы не можете скачивать файлы