Сегодня идет свободное скачивание без начисления Download

Любовь императора Франции (Дезире) / Desiree (1954) [720p] BDRip

Ответить на тему
 
Автор
Сообщение

UndegraundMen ®

Стаж: 3 года 9 месяцев

Сообщений: 28329

Торрент-статистика

Пост 18-Мар-2013 02:56

[Цитировать]

Любовь императора Франции (Дезире) / Desiree (1954) BDRip- Русское название: Любовь императора Франции (Дезире)
Оригинальное название: Desiree
Год выпуска: 1954
Жанр: Драма
Описание фильма:
В этой с размахом поставленной экранизации Марлон Брандо с блеском играет Наполеона, а Джин Симмонс - заглавную роль Дезире, прекрасной возлюбленной великого полководца до того, как он стал императором. Дезире встречает Наполеона Бонапарта еще совсем неизвестным генералом. Они планируют пожениться, но Наполеон едет в Париж и там встречает богатую и влиятельную Жозефину. Дезире на протяжении всего фильма следит за триумфальным шествием великого Наполеона и то борется за свое чувство, то усмиряет свою страсть к нему, которую так никогда и не воплотит в реальности...
Режиссер: Генри Костер
Актеры: Марлон Брандо, Джин Симмонс, Майкл Ренни, Мерл Оберон, Кэмерон Митчелл, Элизабет Селларс, Шарлотта Остин, Кэтлин Несбит, Эвелин Варден, Изобел Элсом, Джон Хойт, Алан Напье, Мэри Стюарт, Свен Хьюго Борг, Питер Борн, Гарри Картер, Ларри Крэйн, Ричард Дикон, Флоренс Даблин, Эдит Эвансон, Сэм Гилман, Кэролин Джонс, Кеннер Дж. Кемп, Кей Катер, Лестер Мэтьюз, Дороти Ньюманн, Виолет Ренсинг, Джо Плоски, Джин Рот, Берт Стивенс
Продолжительность: 01:50:04
Перевод: Многоголосый закадровый
Дата мировой премьеры: 16 ноября 1954
Видеокодек: MPEG-4 AVC/H.264
Битрейт видео: ~8906kb/s
Размер кадра: 1280x496
Качество видео: BDRip
Аудио 1: AC3 Русский 2.0 / 48 kHz / 192 kbps / 16-bit Профессиональный многоголосый
Аудио 2: AC3 Английский 2.0 / 48 kHz / 192 kbps / 16-bit Оригинал
Сэмпл: Ссылка

MediaInfo

Общее
Уникальный идентификатор : 182550370182995227960567769095146620966 (0x8955EC2455F7F390B3918B763088C826)
Полное имя : C:\Xvid4PSP\Любовь императора Франции.1954.BDRip.720p.mkv
Формат : Matroska
Версия формата : Version 4 / Version 2
Размер файла : 7,14 Гбайт
Продолжительность : 1 ч. 50 м.
Общий поток : 9292 Кбит/сек
Дата кодирования : UTC 2013-03-17 19:24:48
Программа кодирования : mkvmerge v6.1.0 ('Old Devil') built on Mar 2 2013 14:32:37
Библиотека кодирования : libebml v1.3.0 + libmatroska v1.4.0
Видео
Идентификатор : 1
Формат : AVC
Формат/Информация : Advanced Video Codec
Профиль формата : [url=mailto:[email protected]][email protected][/url]
Параметр CABAC формата : Да
Параметр ReFrames формата : 8 кадров
Идентификатор кодека : V_MPEG4/ISO/AVC
Продолжительность : 1 ч. 50 м.
Битрейт : 8906 Кбит/сек
Ширина : 1280 пикселей
Высота : 496 пикселей
Соотношение сторон : 2,581
Режим частоты кадров : Постоянный
Частота кадров : 23,976 кадра/сек
Цветовое пространство : YUV
Субдискретизация насыщенности : 4:2:0
Битовая глубина : 8 бит
Тип развёртки : Прогрессивная
Бит/(Пиксели*Кадры) : 0.585
Размер потока : 6,71 Гбайт (94%)
Библиотека кодирования : x264 core 120 r2164 da19765
Настройки программы : cabac=1 / ref=8 / deblock=1:0:0 / analyse=0x3:0x133 / me=umh / subme=9 / psy=1 / psy_rd=1.00:0.00 / mixed_ref=1 / me_range=16 / chroma_me=1 / trellis=2 / 8x8dct=1 / cqm=0 / deadzone=21,11 / fast_pskip=1 / chroma_qp_offset=-2 / threads=6 / sliced_threads=0 / nr=0 / decimate=1 / interlaced=0 / bluray_compat=0 / constrained_intra=0 / bframes=3 / b_pyramid=2 / b_adapt=2 / b_bias=0 / direct=3 / weightb=1 / open_gop=1 / weightp=2 / keyint=240 / keyint_min=23 / scenecut=40 / intra_refresh=0 / rc_lookahead=60 / rc=2pass / mbtree=1 / bitrate=8906 / ratetol=1.0 / qcomp=0.60 / qpmin=0 / qpmax=69 / qpstep=4 / cplxblur=20.0 / qblur=0.5 / ip_ratio=1.40 / aq=1:1.00
Default : Нет
Forced : Нет
Аудио #1
Идентификатор : 2
Формат : AC-3
Формат/Информация : Audio Coding 3
Профиль формата : Dolby Digital
Расширение режима : CM (complete main)
Параметр Endianness формата : Big
Идентификатор кодека : A_AC3
Продолжительность : 1 ч. 50 м.
Вид битрейта : Постоянный
Битрейт : 192 Кбит/сек
Каналы : 2 канала
Расположение каналов : Front: L R
Частота : 48,0 КГц
Битовая глубина : 16 бит
Метод сжатия : С потерями
Размер потока : 151 Мбайт (2%)
Язык : Russian
Default : Да
Forced : Нет
Аудио #2
Идентификатор : 3
Формат : AC-3
Формат/Информация : Audio Coding 3
Расширение режима : CM (complete main)
Параметр Endianness формата : Big
Идентификатор кодека : A_AC3
Продолжительность : 1 ч. 50 м.
Вид битрейта : Постоянный
Битрейт : 192 Кбит/сек
Каналы : 2 канала
Расположение каналов : Front: L R
Частота : 48,0 КГц
Битовая глубина : 16 бит
Метод сжатия : С потерями
Размер потока : 151 Мбайт (2%)
Язык : English
Default : Нет
Forced : Нет
Скриншоты:
         
Время раздачи: 24/7
Вне форума [Профиль] [ЛС]
Похожие темы
Форум Тема Автор Торрент Отв. Посл. сообщение
./templates/default/images/folder_dl.gif Художественная литература Гарсиа Маркес Габриель - Любовь во время чумы [Князев Игорь, 2011 г., 192 kbps, MP3] Omen
1 | 0

0 | 1043

8

2011-10-10 19:53
Omen Последнее
./templates/default/images/folder_dl.gif Фильмы 2011-2016 Последняя любовь на Земле / Perfect Sense (Дэвид МакКензи) [2011 г., драма, мелодрама, DVDRip] Лицензия sassad
1 | 0

0 | 903

26

2011-12-10 20:22
sassad Последнее
./templates/default/images/folder_dl.gif T Фильмы 2001-2010 Выживут только любовники / Only Lovers Left Alive (Джим Джармуш / Jim Jarmusch, 2013, Фантастика, триллер, драма) DVDScr [VO] Omen
1 | 0

0 | 892

18

2014-03-10 18:38
Omen Последнее
./templates/default/images/folder_dl.gif Приключения и квесты Mahjong Detective: The Stolen Love / Маджонг Детектив. Похищенная Любовь [P] [RUS] (2015) Omen
23 | 0

0 | 355

10

2015-06-08 21:00
Omen Последнее
Показать сообщения:    
Ответить на тему

Текущее время: Сегодня 16:42

Часовой пояс: GMT + 3



Вы не можете начинать темы
Вы не можете отвечать на сообщения
Вы не можете редактировать свои сообщения
Вы не можете удалять свои сообщения
Вы не можете голосовать в опросах
Вы не можете прикреплять файлы к сообщениям
Вы не можете скачивать файлы