Сегодня идет свободное скачивание без начисления Download

Тэсс / Tess ( Роман Полански) (1979, Франция, Великобритания, драма, мелодрама) [1080p] BDRip

Ответить на тему
 
Автор
Сообщение

UndegraundMen ®

Стаж: 3 года 9 месяцев

Сообщений: 28329

Торрент-статистика

Пост 18-Мар-2013 06:04

[Цитировать]

Тэсс / Tess (1979) BDRip- «As timely today as the day it was written.»
Русское название: Тэсс
Оригинальное название: Tess
Год выхода: 1979
Режиссер: Роман Полански
В ролях: Настасья Кински, Питер Фёрт, Ли Лосон, Джон Коллин, Розмари Мартин, Кэролин Пиклз, Ричард Пирсон, Дэвид Маркам, Паскаль де Буассон, Сюзанна Хэмилто
Страна производства: Франция, Великобритания
Продолжительность: 186 мин. / 03:06
Продюсер: Клод Берри, Тимоти Баррилл, Пьер Грюнштейн
Сценарий: Жерар Браш, Роман Полански, Джон Браунджон
Жанр: драма, мелодрама
Перевод: Многоголосый закадровый
Описание: Юная красавица-крестьянка Тэсс неожиданно узнаёт, что в её жилах течёт благородная кровь норманнских рыцарей. По воле родителей девушка уезжает жить к новообретённым состоятельным родственникам. Там она сталкивается с обольстительным кузеном Алеком, который не прочь воспользоваться невинностью Тэсс.
Рейтинг MPAA: PG - Рекомендуется присутствие родителей
Рейтинг IMDB:
Рейтинг Kinopoisk:
Дата мировой премьеры: 25 октября 1979
Видеокодек: MPEG-4 AVC/H.264
Битрейт видео: ~8000kb/s
Размер кадра: 1920x804
Качество видео: BDRip
Аудио 1: AC3 Русский 6ch / 48 kHz / 384 kbps / 16-bit Профессиональный двухголосый
Аудио 2: DTS Английский 6ch / 48 kHz /1509 kbps / 16-bit Оригинал
Сэмпл: Ссылка

MediaInfo

Общее
Уникальный идентификатор : 213104382955617090573927279679176324074 (0xA05269471E7255D198EC077C7CD233EA)
Полное имя : C:\Xvid4PSP\Тэсс .1979.x264.BDRip.1080p.mkv
Формат : Matroska
Версия формата : Version 4 / Version 2
Размер файла : 11,8 Гбайт
Продолжительность : 2 ч. 51 м.
Общий поток : 9896 Кбит/сек
Название фильма : Тэсс / Tess / 1979 / BDRip -- STarankov
Дата кодирования : UTC 2013-03-15 08:34:17
Программа кодирования : mkvmerge v6.1.0 ('Old Devil') built on Mar 2 2013 14:32:37
Библиотека кодирования : libebml v1.3.0 + libmatroska v1.4.0
Видео
Идентификатор : 1
Формат : AVC
Формат/Информация : Advanced Video Codec
Профиль формата : [url=mailto:[email protected]][email protected][/url]
Параметр CABAC формата : Да
Параметр ReFrames формата : 4 кадра
Идентификатор кодека : V_MPEG4/ISO/AVC
Продолжительность : 2 ч. 51 м.
Битрейт : 8000 Кбит/сек
Ширина : 1920 пикселей
Высота : 804 пикселя
Соотношение сторон : 2,40:1
Режим частоты кадров : Постоянный
Частота кадров : 23,976 кадра/сек
Цветовое пространство : YUV
Субдискретизация насыщенности : 4:2:0
Битовая глубина : 8 бит
Тип развёртки : Прогрессивная
Бит/(Пиксели*Кадры) : 0.216
Размер потока : 9,34 Гбайт (79%)
Библиотека кодирования : x264 core 129 r2245 bc13772
Настройки программы : cabac=1 / ref=4 / deblock=1:-1:-1 / analyse=0x3:0x113 / me=umh / subme=9 / psy=1 / psy_rd=1.00:0.15 / mixed_ref=1 / me_range=24 / chroma_me=1 / trellis=2 / 8x8dct=1 / cqm=0 / deadzone=21,11 / fast_pskip=0 / chroma_qp_offset=-3 / threads=6 / lookahead_threads=1 / sliced_threads=0 / nr=0 / decimate=1 / interlaced=0 / bluray_compat=0 / constrained_intra=0 / bframes=8 / b_pyramid=2 / b_adapt=2 / b_bias=0 / direct=3 / weightb=0 / open_gop=0 / weightp=2 / keyint=230 / keyint_min=23 / scenecut=40 / intra_refresh=0 / rc=2pass / mbtree=0 / bitrate=8000 / ratetol=1.0 / qcomp=0.60 / qpmin=0 / qpmax=69 / qpstep=4 / cplxblur=20.0 / qblur=0.5 / ip_ratio=1.40 / pb_ratio=1.30 / aq=1:1.00
Язык : English
Default : Да
Forced : Нет
Аудио #1
Идентификатор : 2
Формат : AC-3
Формат/Информация : Audio Coding 3
Расширение режима : CM (complete main)
Параметр Endianness формата : Big
Идентификатор кодека : A_AC3
Продолжительность : 2 ч. 51 м.
Вид битрейта : Постоянный
Битрейт : 384 Кбит/сек
Каналы : 6 каналов
Расположение каналов : Front: L C R, Side: L R, LFE
Частота : 48,0 КГц
Битовая глубина : 16 бит
Метод сжатия : С потерями
Размер потока : 470 Мбайт (4%)
Заголовок : MVO
Язык : Russian
Default : Да
Forced : Нет
Аудио #2
Идентификатор : 3
Формат : DTS
Формат/Информация : Digital Theater Systems
Режим : 16
Параметр Endianness формата : Big
Идентификатор кодека : A_DTS
Продолжительность : 2 ч. 51 м.
Вид битрейта : Постоянный
Битрейт : 1509 Кбит/сек
Каналы : 6 каналов
Расположение каналов : Front: L C R, Side: L R, LFE
Частота : 48,0 КГц
Битовая глубина : 16 бит
Метод сжатия : С потерями
Размер потока : 1,81 Гбайт (15%)
Заголовок : Original
Язык : English
Default : Нет
Forced : Нет
Скриншоты:
         
Время раздачи: 24/7
Вне форума [Профиль] [ЛС]
Показать сообщения:    
Ответить на тему

Текущее время: Сегодня 22:47

Часовой пояс: GMT + 3



Вы не можете начинать темы
Вы не можете отвечать на сообщения
Вы не можете редактировать свои сообщения
Вы не можете удалять свои сообщения
Вы не можете голосовать в опросах
Вы не можете прикреплять файлы к сообщениям
Вы не можете скачивать файлы