Сегодня идет свободное скачивание без начисления Download

Поворотный пункт / The Turning Point (1977) DVDRip

Ответить на тему
 
Автор
Сообщение

UndegraundMen ®

Стаж: 3 года 9 месяцев

Сообщений: 28329

Торрент-статистика

Пост 18-Мар-2013 22:00

[Цитировать]

Поворотный пункт / The Turning Point (1977) DVDRip- Русское название: Поворотный пункт
Оригинальное название: The Turning Point
Год выпуска: 1977
Жанр: Драма, Мелодрама
Описание фильма:
Две подруги, вместе когда-то начинавшие в балете, встречаются спустя много лет. Эмма Джеклин стала звездой, а Диди Роджерс домохозяйкой и учительницей танцев, чья дочь теперь уже начала карьеру в балете…
Режиссер: Херберт Росс /Herbert Ross
Актеры: Ширли МакЛэйн, Энн Бэнкрофт, Михаил Барышников, Лесли Браун, Том Скерритт, Александра Данилова, Питер Мартыньш
Продолжительность: 01:54:23
Перевод: Многоголосый закадровый

Дата мировой премьеры: 14.11.1977
Видеокодек: Xvid
Битрейт видео: ~1513 kb/s
Размер кадра: 720 x 384
Качество видео: DVDRip
Аудиокодек: AC3
Аудио:
1. 192 kb/s cbr 2 канала Русский
2. 192 kb/s cbr 2 канала Английский

MediaInfo

Общее
Полное имя : Поворотный пункт 1977.avi
Формат : AVI
Формат/Информация : Audio Video Interleave
Размер файла : 1,53 Гбайт
Продолжительность : 1 ч. 54 м.
Общий поток : 1911 Кбит/сек
Название фильма : The Turning Point
Режиссёр : Herbert Ross
Программа кодирования : VirtualDubModRus 1.5.10.2 (build 2540/release)
Примечание : fenixclub.com
Видео
Идентификатор : 0
Формат : MPEG-4 Visual
Профиль формата : Advanced [email protected]
Параметр BVOP формата : 1
Параметр QPel формата : Нет
Параметр GMC формата : Без точки перехода
Параметр матрицы формата : Выборочная
Идентификатор кодека : XVID
Идентификатор кодека/Подсказка : XviD
Продолжительность : 1 ч. 54 м.
Битрейт : 1513 Кбит/сек
Ширина : 720 пикселей
Высота : 384 пикселя
Соотношение сторон : 1,85:1
Частота кадров : 25,000 кадров/сек
Цветовое пространство : YUV
Субдискретизация насыщенности : 4:2:0
Битовая глубина : 8 бит
Тип развёртки : Прогрессивная
Метод сжатия : С потерями
Бит/(Пиксели*Кадры) : 0.219
Размер потока : 1,21 Гбайт (79%)
Библиотека кодирования : XviD 1.2.0.dev47 (UTC 2006-11-01)
Аудио #1
Идентификатор : 1
Формат : AC-3
Формат/Информация : Audio Coding 3
Расширение режима : CM (complete main)
Параметр Endianness формата : Big
Идентификатор кодека : 2000
Продолжительность : 1 ч. 54 м.
Вид битрейта : Постоянный
Битрейт : 192 Кбит/сек
Каналы : 2 канала
Расположение каналов : Front: L R
Частота : 48,0 КГц
Битовая глубина : 16 бит
Метод сжатия : С потерями
Размер потока : 157 Мбайт (10%)
Выравнивание : Разделение по промежуткам
Продолжительность промежутка : 40 мс. (1,00 видеокадр)
Время предзагрузки промежутка : 500 мс.
Аудио #2
Идентификатор : 2
Формат : AC-3
Формат/Информация : Audio Coding 3
Расширение режима : CM (complete main)
Параметр Endianness формата : Big
Идентификатор кодека : 2000
Продолжительность : 1 ч. 54 м.
Вид битрейта : Постоянный
Битрейт : 192 Кбит/сек
Каналы : 2 канала
Расположение каналов : Front: L R
Частота : 48,0 КГц
Битовая глубина : 16 бит
Метод сжатия : С потерями
Задержка видео : 8 мс.
Размер потока : 157 Мбайт (10%)
Выравнивание : Разделение по промежуткам
Продолжительность промежутка : 40 мс. (1,00 видеокадр)
Время предзагрузки промежутка : 500 мс.
Скриншоты:

Рецензия, отзыв о фильме

11 номинаций на "Оскар" в 1978г.
10 наград и 7 номинаций в различных кинопремиях
("Золотой глобус", "Давид работы Донателло", "Гильдия писателей Америки", "Лосс-Анджелесская Ассоциация кинокритиков"..)
Вне форума [Профиль] [ЛС]
Показать сообщения:    
Ответить на тему

Текущее время: Сегодня 16:38

Часовой пояс: GMT + 3



Вы не можете начинать темы
Вы не можете отвечать на сообщения
Вы не можете редактировать свои сообщения
Вы не можете удалять свои сообщения
Вы не можете голосовать в опросах
Вы не можете прикреплять файлы к сообщениям
Вы не можете скачивать файлы