Сегодня идет свободное скачивание без начисления Download

История монахини / Nun\'s Story (1959) [720p] HDTVRip

Ответить на тему
 
Автор
Сообщение

UndegraundMen ®

Стаж: 3 года 9 месяцев

Сообщений: 28329

Торрент-статистика

Пост 18-Мар-2013 22:00

[Цитировать]

История монахини / Nun's Story (1959) [720p] HDTVRip
- «Her Faith Remained Strong and True in the Face of Africa's Terrors!» - Название: История монахини
Оригинальное название: Nun's Story
Год выпуска: 1959
Жанр: Драма
Выпущено: США, Warner Bros. Pictures Co.
Описание фильма:
Дочь бельгийского хирурга, хотела быть медсестрой, чтобы помогать лечить туземцев в Конго. Но для этого она должна была стать монахиней. Пройдя через все строгости и ограничения монастыря, она становится сестрой Люк и поступает в школу для изучения медицины. Начав практику в психиатрической больнице, девушка подвергается серьезным испытаниям со стороны не уравновешенных пациентов. Проходят дни и в конце концов она едет в Конго, но вместо лечения темнокожих туземцев ее направляют в госпиталь для европейцев. Там сестра знакомится с суровым доктором Фортуна™ (Питер Финч), хирургом, посвятившим своему делу всю жизнь. После общения с этим гениальным врачом Люк понимает, в чем состоит ее истинный человеческий долг, и отдает все свои силы ради спасения жизни людей...
Режиссер: Фред Зиннеман
В ролях: Одри Хепберн, Питер Финч, Эдит Эванс, Пегги Эшкрофт, Дин Джэггер, Милдред Даннок, Беатрис Стрэйт, Патрисия Коллиндж, Розали Кратчли, Рут Уайт, Барбара О`Нил, Маргарет Филлипс, Патриция Босворт, Коллин Дьюхерст, Стивен Мюррэй
Продолжительность: 02:24:44
Перевод: Двухголосый закадровый
Субтитры: нет

Рейтинг MPAA: PG 13– лицам до 13 лет обязательное присутствие родителей!!!
Дата мировой премьеры: 18 июня 1959
Видеокодек: MPEG-4 AVC
Битрейт видео: ~ 6293 Kбит/с
Размер кадра: 1280х720
Качество видео: HDTVRip
Аудио:
1. Dolby Digital Русский 2.0 / 48 kHz / 192 kbps (Двухголосый закадровый, "СВ-Дубль" по заказу ГТРК "Культура")
2. Dolby Digital Русский 2.0 / 48 kHz / 192 kbps (Двухголосый закадровый, НТВ+)
3. Dolby Digital Английский 2.0 / 48 kHz / 384 kbps

Награды и номинации

Оскар, 1960 год
Номинации (8):
• Лучший фильм
• Лучшая женская роль (Одри Хепберн)
• Лучший режиссер (Фред Циннеман)
• Лучший адаптированный сценарий
• Лучшая работа оператора (цветные фильмы)
• Лучший звук
• Лучший монтаж
• Лучший саундтрек для драматических/комедийных картин
Золотой глобус, 1960 год
Номинации (5):
• Лучший фильм (драма)
• Лучшая женская роль (драма) (Одри Хепберн)
• Лучший фильм, пропагандирующий мировое взаимопонимание
• Лучший режиссер (Фред Циннеман)
• Лучшая женская роль второго плана (Эдит Эванс)
Британская академия, 1960 год
Победитель (1):
• Лучшая британская актриса (Одри Хепберн)
Номинации (4):
• Лучший фильм
• Лучший британский актер (Питер Финч)
• Лучшая британская актриса (Пегги Эшкрофт)
• Премия объединенных наций
Сан-Себастьян, 1959 год
Победитель (2):
• Золотая раковина
• Приз Зулуеты за лучшую женскую роль (Одри Хепберн)

Знаете ли вы, что...

• Судьба главной героини основана на реальных фактах из жизни бывшей монахини, с которой Одри Хепберн консультировалась перед съемками.
• Существует легенда, будто бы Хепберн требовала, чтобы на съемках в Конго ей предоставили биде. Актриса всегда отрицала этот факт, удивляясь, как такая экстравагантная вещь вообще могла бы оказаться в этой бедной африканской стране.
• Артистки балетной труппы Римской Оперы изображали в картине монахинь. Специально для них была придумана хореография сложных монастырских ритуалов.

MediaInfo

C:\Nun's.Story.1959.720p.HDTV.2xRus.Eng.DD2.0.x264.mkv
General
  • Unique ID : 252907813448972161485159926129579702918 (0xBE4445EA7A27A4B1B7B0C9B55EFABA86)
  • Format : Matroska
  • Format version : Version 4 / Version 2
  • File size : 7.14 GiB
  • Duration : 2h 24mn
  • Overall bit rate : 7 063 Kbps
  • Encoded date : UTC 2013-02-04 05:36:43
  • Writing application : mkvmerge v6.0.0 ('Coming Up For Air') built on Jan 20 2013 09:52:00
  • Writing library : libebml v1.3.0 + libmatroska v1.4.0
    Video #1
  • ID : 1
  • Format : AVC
  • Format/Info : Advanced Video Codec
  • Format profile : [url=mailto:[email protected]][email protected][/url]
  • Format settings, CABAC : Yes
  • Format settings, ReFrames : 9 frames
  • Codec ID : V_MPEG4/ISO/AVC
  • Duration : 2h 24mn
  • Bit rate : 6 293 Kbps
  • Width : 1 280 pixels
  • Height : 720 pixels
  • Display aspect ratio : 16:9
  • Frame rate mode : Constant
  • Frame rate : 25.000 fps
  • Color space : YUV
  • Chroma subsampling : 4:2:0
  • Bit depth : 8 bits
  • Scan type : Progressive
  • Bits/(Pixel*Frame) : 0.273
  • Stream size : 6.22 GiB (87%)
  • Title : Nun's Story
  • Writing library : x264 core 129 r2245 bc13772
  • Encoding settings : cabac=1 / ref=9 / deblock=1:-3:-3 / analyse=0x3:0x113 / me=tesa / subme=10 / psy=1 / psy_rd=1.00:0.00 / mixed_ref=1 / me_range=24 / chroma_me=1 / trellis=2 / 8x8dct=1 / cqm=0 / deadzone=21,11 / fast_pskip=0 / chroma_qp_offset=-2 / threads=12 / lookahead_threads=2 / sliced_threads=0 / nr=0 / decimate=0 / interlaced=0 / bluray_compat=0 / constrained_intra=0 / bframes=8 / b_pyramid=2 / b_adapt=2 / b_bias=0 / direct=3 / weightb=1 / open_gop=0 / weightp=2 / keyint=250 / keyint_min=25 / scenecut=40 / intra_refresh=0 / rc=2pass / mbtree=0 / bitrate=6293 / ratetol=1.0 / qcomp=0.70 / qpmin=0 / qpmax=69 / qpstep=4 / cplxblur=20.0 / qblur=0.5 / ip_ratio=1.40 / pb_ratio=1.12 / aq=1:0.88
  • Language : English
  • Default : Yes
  • Forced : No
    Audio #2
  • ID : 2
  • Format : AC-3
  • Format/Info : Audio Coding 3
  • Mode extension : CM (complete main)
  • Format settings, Endianness : Big
  • Codec ID : A_AC3
  • Duration : 2h 24mn
  • Bit rate mode : Constant
  • Bit rate : 192 Kbps
  • Channel(s) : 2 channels
  • Channel positions : Front: L R
  • Sampling rate : 48.0 KHz
  • Bit depth : 16 bits
  • Compression mode : Lossy
  • Stream size : 199 MiB (3%)
  • Title : Культура
  • Language : Russian
  • Default : Yes
  • Forced : No
    Audio #3
  • ID : 3
  • Format : AC-3
  • Format/Info : Audio Coding 3
  • Mode extension : CM (complete main)
  • Format settings, Endianness : Big
  • Codec ID : A_AC3
  • Duration : 2h 24mn
  • Bit rate mode : Constant
  • Bit rate : 192 Kbps
  • Channel(s) : 2 channels
  • Channel positions : Front: L R
  • Sampling rate : 48.0 KHz
  • Bit depth : 16 bits
  • Compression mode : Lossy
  • Stream size : 199 MiB (3%)
  • Title : НТВ
  • Language : Russian
  • Default : No
  • Forced : No
    Audio #4
  • ID : 4
  • Format : AC-3
  • Format/Info : Audio Coding 3
  • Mode extension : CM (complete main)
  • Format settings, Endianness : Big
  • Codec ID : A_AC3
  • Duration : 2h 24mn
  • Bit rate mode : Constant
  • Bit rate : 384 Kbps
  • Channel(s) : 2 channels
  • Channel positions : Front: L R
  • Sampling rate : 48.0 KHz
  • Bit depth : 16 bits
  • Compression mode : Lossy
  • Stream size : 398 MiB (5%)
  • Title : Dialog
  • Language : English
  • Default : No
  • Forced : No
Скриншоты:
       -Раздача: 24/7-Не забываем говорить спасибо, Вам не сложно, а мне приятно)))
Прошу с раздачи не уходить! Скачал сам, дай и другим скачать!!!
Приятного просмотра)))
Вне форума [Профиль] [ЛС]
Похожие темы
Форум Тема Автор Торрент Отв. Посл. сообщение
./templates/default/images/folder_dl.gif Разное Стив Возняк, Джина Смит - Стив Джобс и я. Подлинная история Apple [2012] [FB2] Omen
1 | 0

0 | 781

19

2012-05-26 13:06
Omen Последнее
./templates/default/images/folder_dl.gif Техническая и научно-популярная литература А.А. Князева (ред.) | Собрание Дома Джорджа Истмена. История фотографии с 1839 года до наших дней (2010) [PDF] Omen
1 | 0

0 | 385

8

2015-05-03 20:34
Omen Последнее
./templates/default/images/folder_dl.gif Наше кино А зори здесь тихие (Ренат Давлетьяров) [2015, Россия, драма, военный, история, WEB-DL 1080p] + Original Rus Omen
1 | 0

0 | 290

7

2015-07-02 18:01
Omen Последнее
./templates/default/images/folder_dl.gif Фильмы 2011-2016 В сердце моря / In the Heart of the Sea (Рон Ховард) [2015, боевик, триллер, драма, приключения, биография, история, BDRip-AVC] DUB | iTunes Theseus
1 | 0

0 | 519

15

2016-03-03 16:03
Theseus Последнее
./templates/default/images/folder_dl.gif Movies (OST) Цикл историй / Monogatari Series (Utamonogatari Limited Edition (DVD)) - 2016 г., FLAC (tracks+.cue), lossless Omen
0 | 1

0 | 242

0

2016-03-08 00:03
Omen Последнее
./templates/default/images/folder_dl.gif Техническая и научно-популярная литература Борис Жуков | Введение в поведение. История наук о том, что движет животными и как их правильно понимать (2016) [EPUB, FB2, MOBI] Omen
1 | 0

0 | 106

2

2016-03-09 21:00
Omen Последнее
Показать сообщения:    
Ответить на тему

Текущее время: Сегодня 05:09

Часовой пояс: GMT + 3



Вы не можете начинать темы
Вы не можете отвечать на сообщения
Вы не можете редактировать свои сообщения
Вы не можете удалять свои сообщения
Вы не можете голосовать в опросах
Вы не можете прикреплять файлы к сообщениям
Вы не можете скачивать файлы