Сегодня идет свободное скачивание без начисления Download

Бродяга высокогорных равнин / High Plains Drifter ( Клинт Иствуд) (1973, США, The Malpaso Company, Вестерн, ковбой, 19 век) [1080p] HDTVRip

Ответить на тему
 
Автор
Сообщение

Koralina ®

Стаж: 5 лет 3 месяца

Сообщений: 1433

Откуда: Lithuania

Торрент-статистика

Пост 18-Мар-2013 22:59

[Цитировать]

Бродяга высокогорных равнин / High Plains Drifter (1973) [1080p] HDTVRip
- «Welcome to Hell» - Название: Бродяга высокогорных равнин
Оригинальное название: High Plains Drifter
Год выпуска: 1973
Жанр: Вестерн, ковбой, 19 век
Выпущено: США, The Malpaso Company
Описание фильма:
Человек без имени нанят жителями небольшого городка для защиты от троих бандитов, только что выпущенных из тюрьмы, где они сидели за преступления, совершенные как раз в этом городке. Человек, согласившийся защищать их, имеет свои резоны принять в этом участие — несколько лет назад, когда он был на службе закона, бандиты избили его до полусмерти, но никто из жителей этого городка не вступился. Он сумел отомстить и тем и другим со свойственной Иствуду суровостью и шармом.
Режиссер: Клинт Иствуд
В ролях: Клинт Иствуд, Верна Блум, Марианна Хилл, Митч Райан, Джек Джинг, Стефан Гираш, Тед Хартли, Билли Кертис, Джеффри Льюис, Скотт Уолкер, Уолтер Барнс, Пол Бринегар, Ричард Булл, Роберт Доннер, Джон Хиллерман, Энтони Джеймс, Уильям О’Коннелл, Джон Квэйд, Дэн Вадис, Бадди Ван Хорн, Джейн Олл, Рейд Крукшэнкс
Продолжительность: 01:44:58
Перевод: Многоголосый закадровый, Одноголосый закадровый
Субтитры: Английские, Русские

Рейтинг MPAA: R– лицам до 17 лет обязательное присутствие родителей!!!
Дата мировой премьеры: «Welcome to Hell»
Видеокодек: MPEG-4 AVC
Битрейт видео: ~ 10.7 Mbps
Размер кадра: 1920x816
Качество видео: HDTVRip
Аудио:
1. Dolby Digital Русский 2.0 / 48 kHz / 192 kbps (Многоголосый закадровый, DVD Магия)
2. Dolby Digital Русский 2.0 / 48 kHz / 192 kbps (Многоголосый закадровый, DVD Магия)
3. Dolby Digital Русский 2.0 / 48 kHz / 192 kbps (Одноголосый закадровый, А.Гаврилов)
4. Dolby Digital Английский 2.0 / 48 kHz / 192 kbps
5. Dolby Digital Английский 5.1 / 48 kHz / 384 kbps

Знаете ли вы, что...

• По одной из версий, Человек без имени является неупокоившимся духом шерифа Данкана, вернувшимся ради отмщения. На это указывают некоторые диалоги, а также то, что в конце фильма незнакомец скачет и растворяется в плато, откуда и прибыл. В интервью для передачи Inside the Actors Studio, Иствуд заявлял что ранние версии сценария предполагали, что незнакомец являлся братом убитого шерифа. Сам он отдаёт предпочтение более сверхестественной интерпретации.
• Роль шерифа Джима Данкана сыграл каскадёр Бадди ван Хорн, долгое время являвшийся дублёром Иствуда.

MediaInfo

High.Plains.Drifter.1973.1080p.HDTV.3xRus.Eng.HDCLUB.mkv
Format : Matroska
Format version : Version 4 / Version 2
File size : 8.72 GiB
Duration : 1h 44mn
Overall bit rate : 11.9 Mbps
Movie name : High Plains Drifter (1973)
Encoded date : UTC 2013-03-13 03:53:59
Writing application : mkvmerge v6.1.0 ('Old Devil') built on Mar 2 2013 14:32:37
Writing library : libebml v1.3.0 + libmatroska v1.4.0
Video
ID : 1
Format : AVC
Format/Info : Advanced Video Codec
Format profile : [url=mailto:[email protected]][email protected][/url]
Format settings, CABAC : Yes
Format settings, ReFrames : 4 frames
Codec ID : V_MPEG4/ISO/AVC
Duration : 1h 44mn
Bit rate : 10.7 Mbps
Width : 1 920 pixels
Height : 816 pixels
Display aspect ratio : 2.35:1
Frame rate mode : Constant
Frame rate : 23.976 fps
Color space : YUV
Chroma subsampling : 4:2:0
Bit depth : 8 bits
Scan type : Progressive
Bits/(Pixel*Frame) : 0.286
Stream size : 7.70 GiB (88%)
Title : High Plains Drifter (1973)
Writing library : x264 core 130 r2273 b3065e6
Encoding settings : cabac=1 / ref=4 / deblock=1:-1:-1 / analyse=0x3:0x113 / me=umh / subme=10 / psy=1 / psy_rd=1.00:0.20 / mixed_ref=1 / me_range=32 / chroma_me=1 / trellis=2 / 8x8dct=1 / cqm=0 / deadzone=21,11 / fast_pskip=0 / chroma_qp_offset=-3 / threads=12 / lookahead_threads=1 / sliced_threads=0 / nr=0 / decimate=0 / interlaced=0 / bluray_compat=0 / constrained_intra=0 / bframes=6 / b_pyramid=2 / b_adapt=2 / b_bias=0 / direct=3 / weightb=1 / open_gop=0 / weightp=2 / keyint=240 / keyint_min=23 / scenecut=40 / intra_refresh=0 / rc_lookahead=40 / rc=2pass / mbtree=0 / bitrate=10733 / ratetol=1.0 / qcomp=0.60 / qpmin=0 / qpmax=69 / qpstep=4 / cplxblur=20.0 / qblur=0.5 / vbv_maxrate=50000 / vbv_bufsize=62500 / nal_hrd=none / ip_ratio=1.40 / pb_ratio=1.30 / aq=1:1.00
Language : English
Default : Yes
Forced : No
Audio #1
ID : 2
Format : AC-3
Format/Info : Audio Coding 3
Mode extension : CM (complete main)
Format settings, Endianness : Big
Codec ID : A_AC3
Duration : 1h 44mn
Bit rate mode : Constant
Bit rate : 192 Kbps
Channel(s) : 2 channels
Channel positions : Front: L R
Sampling rate : 48.0 KHz
Bit depth : 16 bits
Compression mode : Lossy
Stream size : 144 MiB (2%)
Title : AC3 2 ch 192 kbps MVO (DVD Magija)
Language : Russian
Default : Yes
Forced : No
Audio #2
ID : 3
Format : AC-3
Format/Info : Audio Coding 3
Mode extension : CM (complete main)
Format settings, Endianness : Big
Codec ID : A_AC3
Duration : 1h 44mn
Bit rate mode : Constant
Bit rate : 192 Kbps
Channel(s) : 2 channels
Channel positions : Front: L R
Sampling rate : 48.0 KHz
Bit depth : 16 bits
Compression mode : Lossy
Stream size : 144 MiB (2%)
Title : AC3 2 ch 192 kbps MVO (SomeWax)
Language : Russian
Default : No
Forced : No
Audio #3
ID : 4
Format : AC-3
Format/Info : Audio Coding 3
Mode extension : CM (complete main)
Format settings, Endianness : Big
Codec ID : A_AC3
Duration : 1h 44mn
Bit rate mode : Constant
Bit rate : 192 Kbps
Channel(s) : 2 channels
Channel positions : Front: L R
Sampling rate : 48.0 KHz
Bit depth : 16 bits
Compression mode : Lossy
Stream size : 144 MiB (2%)
Title : AC3 2 ch 192 kbps AVO (Gavrilov)
Language : Russian
Default : No
Forced : No
Audio #4
ID : 5
Format : AC-3
Format/Info : Audio Coding 3
Mode extension : CM (complete main)
Format settings, Endianness : Big
Codec ID : A_AC3
Duration : 1h 44mn
Bit rate mode : Constant
Bit rate : 192 Kbps
Channel(s) : 2 channels
Channel positions : Front: L R
Sampling rate : 48.0 KHz
Bit depth : 16 bits
Compression mode : Lossy
Stream size : 144 MiB (2%)
Title : AC3 2 ch 192 kbps Original
Language : English
Default : No
Forced : No
Audio #5
ID : 6
Format : AC-3
Format/Info : Audio Coding 3
Mode extension : CM (complete main)
Format settings, Endianness : Big
Codec ID : A_AC3
Duration : 1h 44mn
Bit rate mode : Constant
Bit rate : 384 Kbps
Channel(s) : 6 channels
Channel positions : Front: L C R, Side: L R, LFE
Sampling rate : 48.0 KHz
Bit depth : 16 bits
Compression mode : Lossy
Stream size : 288 MiB (3%)
Title : AC3 6 ch 384 kbps Original
Language : English
Default : No
Forced : No
Text #1
ID : 7
Format : UTF-8
Codec ID : S_TEXT/UTF8
Codec ID/Info : UTF-8 Plain Text
Title : Russian
Language : Russian
Default : No
Forced : No
Text #2
ID : 8
Format : UTF-8
Codec ID : S_TEXT/UTF8
Codec ID/Info : UTF-8 Plain Text
Title : English
Language : English
Default : No
Forced : No
Menu
00:00:00.000 : en:(Main Titles) the Stranger
00:07:10.000 : en:Encounter at the Saloon
00:13:19.000 : en:The Stranger Gets Acquainted
00:17:35.000 : en:A Dream
00:22:35.599 : en:A Hot Bath
00:26:26.000 : en:The Town Council
00:29:43.000 : en:Anything You Want
00:38:34.000 : en:Volunteers
00:49:59.000 : en:The Gunfighter Stays
00:55:38.700 : en:Remembering
01:04:18.000 : en:The Church Meeting
01:11:09.000 : en:A New Room
01:18:39.000 : en:The Ambush
01:26:52.600 : en:Trouble Rides to Town
01:33:12.500 : en:The Stranger Returns
01:43:01.300 : en:The Name on the Grave (End Titles)
Скриншоты:
       

_________________
Вне форума [Профиль] [ЛС]
Показать сообщения:    
Ответить на тему

Текущее время: Сегодня 08:52

Часовой пояс: GMT + 3



Вы не можете начинать темы
Вы не можете отвечать на сообщения
Вы не можете редактировать свои сообщения
Вы не можете удалять свои сообщения
Вы не можете голосовать в опросах
Вы не можете прикреплять файлы к сообщениям
Вы не можете скачивать файлы