Сегодня идет свободное скачивание без начисления Download

Запрещенные игры / Forbidden Games / Jeux interdits (1952) [1080p] BDRip

Ответить на тему
 
Автор
Сообщение

UndegraundMen ®

Стаж: 3 года 9 месяцев

Сообщений: 28329

Торрент-статистика

Пост 19-Мар-2013 01:09

[Цитировать]

Запрещенные игры / Forbidden Games / Jeux interdits (1952) [1080p] BDRip
- «War...and how it affects the lives of our children» - Название: Запрещенные игры
Оригинальное название: Forbidden Games / Jeux interdits
Год выпуска: 1952
Жанр: Драма
Выпущено: Франция, Silver Films
Описание фильма:
В июне 1940 года жители покидают Париж. После налета авиации погибают родители маленькой девочки Полетт. Ее находит деревенский мальчик Мишель и приводит домой. В дружбу детей неожиданно вмешиваются полицейские — они забирают девочку в приют для сирот. Но Полетт не желает покидать друга…
Режиссер: Рене Клеман
В ролях: Жорж Пужули, Брижит Фоссе, Амедеи, Лоранс Бади, Мадлен Барбюле, Сюзанна Курталь, Люсьен Юбер, Жак Марен, Пьер Мерове, Вайолетт Монньер
Продолжительность: 01:26:15
Перевод: Многоголосый закадровый
Субтитры: Английские

Рейтинг MPAA: PG 13– лицам до 13 лет обязательное присутствие родителей!!!
Дата мировой премьеры: 9 мая 1952
Видеокодек: MPEG 4-AVC
Битрейт видео: ~ 11.1 Mbps
Размер кадра: 1468x1080
Качество видео: BDRip
Аудио:
1. DTS-HD Французский 2.0 / 48 kHz / 1431 kbps / 16-bit (DTS Core: 2.0 / 48 kHz / 768 kbps / 16-bit)
2. Dolby Digital Русский 2.0 / 48 kHz / 192 kbps (Многоголосый закадровый)

Награды и номинации

Оскар, 1955 год
Номинации (1):
Лучший сценарий игрового фильма
Британская академия, 1954 год
Победитель (1):
Лучший фильм
Оскар, 1953 год
Победитель (1):
Специальная награда за лучший фильм на иностранном языке
Венецианский кинофестиваль, 1952 год
Победитель (1):
Золотой лев

Знаете ли вы, что...

• Первоначально французский продюсер Робер Дорфман планировал выпустить фильм состоящий из трёх новелл снятых разными режиссёрами, однако из-за финансовых трудностей была снята только новелла «Запрещённые игры» (в марте-апреле 1951), из которой, впоследствии, было решено сделать полнометражный фильм.
• Чтобы растянуть новеллу до полного метра, съёмочной группе пришлось доснимать часть материала (сентябрь 1952). За год дети играющие главные роли успели подрасти, а некоторые пейзажи изменились, но благодаря мастерству Рене Клемана и его команды зрители ничего не заметили.

MediaInfo

General
General
Unique ID : 244323378583132614141498995046631726963 (0xB7CEF899882CEB2A808EACDCE4FDDF73)
Complete name : E:\кино\Jeux.interdits.1952.Blu-ray.RE.x264.1080p.DTS-HD.MA2.0.mkv
Format : Matroska
Format version : Version 4 / Version 2
File size : 7.32 GiB
Duration : 1h 26mn
Overall bit rate mode : Variable
Overall bit rate : 12.1 Mbps
Encoded date : UTC 2013-02-05 09:42:25
Writing application : mkvmerge v6.0.0 ('Coming Up For Air') built on Jan 20 2013 09:52:00
Writing library : libebml v1.3.0 + libmatroska v1.4.0
Video
ID : 1
Format : AVC
Format/Info : Advanced Video Codec
Format profile : [url=mailto:[email protected]][email protected][/url]
Format settings, CABAC : Yes
Format settings, ReFrames : 5 frames
Codec ID : V_MPEG4/ISO/AVC
Duration : 1h 26mn
Bit rate : 11.1 Mbps
Width : 1 468 pixels
Height : 1 080 pixels
Display aspect ratio : 4:3
Frame rate : 24.000 fps
Color space : YUV
Chroma subsampling : 4:2:0
Bit depth : 8 bits
Scan type : Progressive
Bits/(Pixel*Frame) : 0.292
Stream size : 6.57 GiB (90%)
Writing library : x264 core 115 r2008 4c552d8
Encoding settings : cabac=1 / ref=5 / deblock=1:-3:-3 / analyse=0x3:0x133 / me=umh / subme=10 / psy=1 / psy_rd=1.00:0.00 / mixed_ref=1 / me_range=16 / chroma_me=1 / trellis=2 / 8x8dct=1 / cqm=0 / deadzone=21,11 / fast_pskip=0 / chroma_qp_offset=-2 / threads=12 / sliced_threads=0 / nr=0 / decimate=0 / interlaced=0 / bluray_compat=0 / constrained_intra=0 / bframes=8 / b_pyramid=0 / b_adapt=2 / b_bias=0 / direct=3 / weightb=1 / open_gop=0 / weightp=2 / keyint=600 / keyint_min=1 / scenecut=40 / intra_refresh=0 / rc_lookahead=60 / rc=2pass / mbtree=1 / bitrate=11095 / ratetol=1.0 / qcomp=0.60 / qpmin=10 / qpmax=51 / qpstep=4 / cplxblur=20.0 / qblur=0.5 / vbv_maxrate=22000 / vbv_bufsize=22000 / nal_hrd=none / ip_ratio=1.40 / aq=1:1.00
Language : English
Default : Yes
Forced : No
Audio #1
ID : 2
Format : DTS
Format/Info : Digital Theater Systems
Format profile : MA / Core
Codec ID : A_DTS
Duration : 1h 26mn
Bit rate mode : Variable
Bit rate : 803 Kbps / 755 Kbps
Channel(s) : 2 channels
Channel positions : Front: L R
Sampling rate : 48.0 KHz
Bit depth : 16 bits
Compression mode : Lossless / Lossy
Language : French
Default : No
Forced : No
Audio #2
ID : 3
Format : AC-3
Format/Info : Audio Coding 3
Mode extension : CM (complete main)
Format settings, Endianness : Big
Codec ID : A_AC3
Duration : 1h 26mn
Bit rate mode : Constant
Bit rate : 192 Kbps
Channel(s) : 2 channels
Channel positions : Front: L R
Sampling rate : 48.0 KHz
Bit depth : 16 bits
Compression mode : Lossy
Stream size : 118 MiB (2%)
Language : Russian
Default : Yes
Forced : Yes
Text
ID : 4
Format : PGS
Muxing mode : zlib
Codec ID : S_HDMV/PGS
Codec ID/Info : The same subtitle format used on BDs/HD-DVDs
Language : English
Default : Yes
Forced : No
Menu
00:00:00.000 : en:00:00:00.000
00:03:06.083 : en:00:03:06.083
00:10:53.333 : en:00:10:53.333
00:18:15.125 : en:00:18:15.125
00:30:26.250 : en:00:30:26.250
00:36:32.708 : en:00:36:32.708
00:40:58.542 : en:00:40:58.542
00:48:17.875 : en:00:48:17.875
00:56:35.833 : en:00:56:35.833
01:03:16.875 : en:01:03:16.875
01:09:55.833 : en:01:09:55.833
01:16:27.667 : en:01:16:27.667
Скриншоты:
-Раздача: 24/7-Не забываем говорить спасибо, Вам не сложно, а мне приятно)))
Прошу с раздачи не уходить! Скачал сам, дай и другим скачать!!!
Приятного просмотра)))
Вне форума [Профиль] [ЛС]
Похожие темы
Форум Тема Автор Торрент Отв. Посл. сообщение
./templates/default/images/folder_dl.gif Фильмы 2001-2010 Запретная зона / Chernobyl Diaries (Брэдли Паркер) [2012 г., ужасы, DVDRip] Лицензия BoxeR
1 | 0

5 | 2063

203

2012-08-26 01:51
DOLPHIN125 Последнее
./templates/default/images/folder_dl.gif Фантастика, фэнтези, ужасы, мистика Власов Игорь - Запретный мир 02: Исход [Колосов Евгений, 2015 г., 192 kbps, MP3] Omen
1 | 0

0 | 488

3

2015-04-30 12:00
Omen Последнее
./templates/default/images/folder_dl.gif Разное Фратер Бальтазар, Сорор Манира и Абд эль-Хазред - Том 2. Запретная Магия древних. Книга артефактов [2009, PDF, RUS] Omen
1 | 0

0 | 296

7

2016-01-07 03:00
Omen Последнее
./templates/default/images/folder_dl.gif Обучающее видео Марк Шоен | Pro секс: Наслаждение запретными удовольствиями (2003) DVDRip moralis
1 | 0

0 | 232

12

2016-01-12 15:12
moralis Последнее
./templates/default/images/folder_dl.gif Психология, Тренинг, Саморазвитие Ричард Дэнсон | Черная риторика. Запрещенные приёмы ведения дискуссий (2016) [FB2] [email protected]
1 | 0

0 | 126

4

2016-11-25 18:50
[email protected] Последнее
Показать сообщения:    
Ответить на тему

Текущее время: Сегодня 00:20

Часовой пояс: GMT + 3



Вы не можете начинать темы
Вы не можете отвечать на сообщения
Вы не можете редактировать свои сообщения
Вы не можете удалять свои сообщения
Вы не можете голосовать в опросах
Вы не можете прикреплять файлы к сообщениям
Вы не можете скачивать файлы