Сегодня идет свободное скачивание без начисления Download

Что нового, кошечка? / What\'s New Pussycat (1965) DVDRip [H.264]

Ответить на тему
 
Автор
Сообщение

UndegraundMen ®

Стаж: 3 года 9 месяцев

Сообщений: 28329

Торрент-статистика

Пост 19-Мар-2013 13:54

[Цитировать]

Что нового, кошечка? / What's New Pussycat (1965) DVDRip [H.264] -«FOLLOW US... ...and find the answer to the comedy question of the year!»- Русское название: Что нового, кошечка?
Оригинальное название: What's New Pussycat
Год выпуска: 1965
Жанр: Комедия
Страна: Франция, США
Производство: Famartists Productions S.A., Famous Artists Productions
Описание фильма:
Патологический бабник Майкл всеми силами пытается сохранить верность своей девушке, но у него ничего не получается. От отчаяния он начинает ходить к психоаналитику. Но доктору самому нужна срочная психиатрическая помощь, как, впрочем, всем героям этой безумной комедии, снятой по первой пьесе Вуди Аллена.
Режиссер: Клайв Доннер, Ричард Тэлмидж
Сценарий: Вуди Аллен
Продюсер: Чарльз К. Фельдман, Джон С. Шепридж, Ричард Силберт
Актеры: Питер Селлерс, Питер О’Тул, Роми Шнайдер, Капучине, Пола Прентисс, Вуди Аллен, Урсула Андресс, Эддра Гэйл, Катрин Шааке, Элеонор Ир
Продолжительность: 01:44:07
Перевод: Многоголосый закадровый
Субтитры: Отсутствуют

Дата мировой премьеры: 22 июня 1965
Видеокодек: MPEG-4 AVC/H.264
Битрейт видео: ~2199 Кбит/сек
Размер кадра: 704x384
Качество видео: DVDRip
Аудиокодек: AC3 2.0
Битрейт аудио: 192 kbps

Знаете ли вы, что...

Сцена, где герой Вуди Аллена Виктор празднует свой день рождения на пристани, была снята 1 декабря 1965 года — в день 29-летия самого Вуди Аллена.
Продюсер картины Чарльз Фельдман привлёк к работе в фильме Вуди Аллена, попросив доработать имевшийся сценарий и откорректировать главную мужскую роль, которая предназначалась Уоррену Битти. Аллену была обещана собственная маленькая роль, — однако в процессе переделки сценария он существенно укрупнил её за счёт роли Битти. Когда актёр обнаружил, что получает роль второго плана, то есть совсем не то, на что рассчитывал, между ним и студией возник серьёзный конфликт, который разрешился в пользу сценариста. Студия сочла новую редакцию значительно удачней первоначальной версии, а прежде малоизвестный Аллен вдруг проявил себя личностью, способной «выдавить» из фильма даже «звезду» и с которой стоит считаться.
После того как Уоррен Битти вышел из проекта, на его роль был приглашён Питер О’Тул. Вместе с О’Тулом в картину вошёл Питер Селлерс, — также большая «звезда» и требовательный артист, который добавил в фильм много собственных идей, таким образом Аллену пришлось продолжать корректировать сценарий.
В фильме нашли применение свойственные авторской манере Аллена эротические шутки, достаточно прямолинейные кинопародии (например на «Восемь с половиной» Феллини и фильмы бондианы) и гэги в стиле немого кино.
Героиню Капучине зовут Рене Лeфевр. Настоящее имя актрисы — Жермен Лефевр.

Реценция с кинопоиска от [email protected] moves:

И психоаналитику нужен психоаналитик
Являясь поклонницей творчества Вуди Аллена мне стало интересно посмотреть одну из его ранних работ. Скажу, что здесь еще не вовсю проявляется алленовский талант, но не смотря на это фильм получился развлекательным, смешным и главное — никак не пошлым. Этот фильм бессмысленно пересказывать, его надо смотреть и смотреть, для того чтобы понять и оценить его юмор, оригинальность и в чем-то, на мой взгляд, даже новаторство.
Актеры блестяще сыграли свои роли. Здесь выделились все: и голубоглазый Питер О`Тул, и обворожительная Роми Шнайдер, и, конечно же, сам очкарик — Вуди Аллен.
Странно наблюдать как в Америке еще в 60-х годах снимались такие фильмы о сексе, когда у нас в стране его еще не было.
P.S. Как мы понимаем из сюжета, детей с собой на просмотр данного фильма брать не рекомендуется.
9 из 10

Награды:

Оскар, 1966 год
Номинации (1):
Лучшая песня — «What's New, Pussycat?»

MediaInfo:

Общее
Уникальный идентификатор : 213406150316444373929584435647306883234 (0xA08C878EB19BF53FBC8C611EDCD160A2)
Полное имя : D:\Downloads\Что нового, кошечка.mkv
Формат : Matroska
Версия формата : Version 2
Размер файла : 1,74 Гбайт
Продолжительность : 1 ч. 44 м.
Общий поток : 2392 Кбит/сек
Дата кодирования : UTC 2013-03-19 04:53:47
Программа кодирования : mkvmerge v5.7.0 ('The Whirlwind') built on Jul 29 2012 15:12:35
Библиотека кодирования : libebml v1.2.3 + libmatroska v1.3.0
Видео
Идентификатор : 1
Формат : AVC
Формат/Информация : Advanced Video Codec
Профиль формата : [url=mailto:[email protected]][email protected][/url]
Параметр CABAC формата : Да
Параметр ReFrames формата : 8 кадров
Режим смешивания : Header stripping
Идентификатор кодека : V_MPEG4/ISO/AVC
Продолжительность : 1 ч. 44 м.
Битрейт : 2199 Кбит/сек
Ширина : 704 пикселя
Высота : 384 пикселя
Соотношение сторон : 1,85:1
Режим частоты кадров : Постоянный
Частота кадров : 25,000 кадров/сек
Цветовое пространство : YUV
Субдискретизация насыщенности : 4:2:0
Битовая глубина : 8 бит
Тип развёртки : Прогрессивная
Бит/(Пиксели*Кадры) : 0.325
Размер потока : 1,57 Гбайт (90%)
Заголовок : What's New Pussycat
Библиотека кодирования : x264 core 129 r2245 bc13772
Настройки программы : cabac=1 / ref=8 / deblock=1:0:0 / analyse=0x3:0x113 / me=umh / subme=9 / psy=1 / psy_rd=1.00:0.00 / mixed_ref=1 / me_range=32 / chroma_me=1 / trellis=2 / 8x8dct=1 / cqm=0 / deadzone=21,11 / fast_pskip=1 / chroma_qp_offset=-2 / threads=6 / lookahead_threads=1 / sliced_threads=0 / nr=0 / decimate=1 / interlaced=0 / bluray_compat=0 / constrained_intra=0 / bframes=4 / b_pyramid=2 / b_adapt=2 / b_bias=0 / direct=3 / weightb=1 / open_gop=0 / weightp=2 / keyint=250 / keyint_min=25 / scenecut=40 / intra_refresh=0 / rc_lookahead=60 / rc=2pass / mbtree=1 / bitrate=2199 / ratetol=1.0 / qcomp=0.60 / qpmin=10 / qpmax=51 / qpstep=4 / cplxblur=20.0 / qblur=0.5 / ip_ratio=1.40 / aq=1:1.00
Язык : English
Default : Да
Forced : Нет
Аудио
Идентификатор : 2
Формат : AC-3
Формат/Информация : Audio Coding 3
Расширение режима : CM (complete main)
Параметр Endianness формата : Big
Режим смешивания : Header stripping
Идентификатор кодека : A_AC3
Продолжительность : 1 ч. 44 м.
Вид битрейта : Постоянный
Битрейт : 192 Кбит/сек
Каналы : 2 канала
Расположение каналов : Front: L R
Частота : 48,0 КГц
Битовая глубина : 16 бит
Метод сжатия : С потерями
Размер потока : 143 Мбайт (8%)
Заголовок : Многоголосый закадровый
Язык : Russian
Default : Да
Forced : Нет
Скриншоты:                    
Вне форума [Профиль] [ЛС]
Показать сообщения:    
Ответить на тему

Текущее время: Сегодня 16:43

Часовой пояс: GMT + 3



Вы не можете начинать темы
Вы не можете отвечать на сообщения
Вы не можете редактировать свои сообщения
Вы не можете удалять свои сообщения
Вы не можете голосовать в опросах
Вы не можете прикреплять файлы к сообщениям
Вы не можете скачивать файлы