Сегодня идет свободное скачивание без начисления Download

Любовь после полудня / Love in the Afternoon (1957) [720p] WEB-DL

Ответить на тему
 
Автор
Сообщение

UndegraundMen ®

Стаж: 3 года 9 месяцев

Сообщений: 28329

Торрент-статистика

Пост 20-Мар-2013 14:10

[Цитировать]

Любовь после полудня / Love in the Afternoon- «Love is a game any number can play... especially in the afternoon...»- Название: Любовь после полудня
Оригинальное название: Love in the Afternoon
Год выпуска: 1957
Жанр: Драма, мелодрама, комедия
Выпущено: США, Allied Artists Pictures
Описание фильма:
Клод Чавесс — частный детектив, специализирующийся на слежке за неверными женами и мужьями. Любимый объект его наблюдений, приносящий ему львиную долю доходов — американский миллионер и охотник за женщинами Флэннаган. На этот раз очередной обманутый муж, получив доказательства измены, решил застрелить обоих любовников во время их следующей встречи. Узнавшая об этом Ариана, дочь Клода, движимая состраданием, решает спасти Флэннагана и заодно познакомиться с ним. Это была самая большая ошибка в её жизни… Девушкам нельзя знакомиться с донжуанами…
Режиссер: Билли Уайлдер
В ролях: Гэри Купер, Одри Хепберн, Морис Шевалье, Джон МакГайвер, Ван Доудэ, Лизе Бурден, Ольга Валери, Марк Ориан, Вера Боккадоро, Франсуаз Брион
Продолжительность: 02:09:58
Перевод: Двухголосый закадровый, Одноголосый закадровый
Субтитры: Русские, Английские
Видеокодек: MPEG-4 AVC
Битрейт видео: ~ 4204 Кбит/с
Размер кадра: 1278x720
Качество видео: WEB-DL
Аудио:
1. Dolby Digital Русский 2.0 / 48 kHz / 192 kbps (Одноголосый закадровый, Карцев)
2. Dolby Digital Русский 2.0 / 48 kHz / 192 kbps (Двухголосый закадровый)
3. Dolby Digital Английский 2.0 / 48 kHz / 192 kbps

Награды и номинации

Золотой глобус, 1958 год
Номинации (3):
•Лучшая женская роль (комедия или мюзикл) (Одри Хепберн)
•Лучшая мужская роль (комедия или мюзикл) (Морис Шевалье)
•Лучший фильм (комедия или мюзикл)[/pagesd]

MediaInfo

Format : Matroska
File size : 4.43 GiB
Duration : 2h 9mn
Overall bit rate : 4 877 Kbps
Encoded date : UTC 2013-03-13 14:52:19
Writing application : mkvmerge v3.3.0 ('Language') built on Mar 24 2010 14:59:24
Writing library : libebml v0.8.0 + libmatroska v0.9.0
Video
ID : 1
Format : AVC
Format/Info : Advanced Video Codec
Format profile : [url=mailto:[email protected]][email protected][/url]
Format settings, CABAC : No
Format settings, ReFrames : 2 frames
Muxing mode : Container [email protected]
Codec ID : V_MPEG4/ISO/AVC
Duration : 2h 9mn
Bit rate : 4 204 Kbps
Width : 1 278 pixels
Height : 720 pixels
Display aspect ratio : 16:9
Frame rate : 23.976 fps
Color space : YUV
Chroma subsampling : 4:2:0
Bit depth : 8 bits
Scan type : Progressive
Bits/(Pixel*Frame) : 0.191
Stream size : 3.82 GiB (86%)
Title : Love.In.the.Afternoon.1957
Language : English
Color primaries : BT.709-5, BT.1361, IEC 61966-2-4, SMPTE RP177
Transfer characteristics : BT.709-5, BT.1361
Matrix coefficients : BT.709-5, BT.1361, IEC 61966-2-4 709, SMPTE RP177
Audio #1
ID : 2
Format : AC-3
Format/Info : Audio Coding 3
Mode extension : CM (complete main)
Codec ID : A_AC3
Duration : 2h 9mn
Bit rate mode : Constant
Bit rate : 192 Kbps
Channel(s) : 2 channels
Channel positions : Front: L R
Sampling rate : 48.0 KHz
Stream size : 179 MiB (4%)
Title : AVO Карцев @ AC3 192 kbs
Language : Russian
Audio #2
ID : 3
Format : AC-3
Format/Info : Audio Coding 3
Mode extension : CM (complete main)
Codec ID : A_AC3
Duration : 2h 9mn
Bit rate mode : Constant
Bit rate : 192 Kbps
Channel(s) : 2 channels
Channel positions : Front: L R
Sampling rate : 48.0 KHz
Stream size : 179 MiB (4%)
Title : DVO @ AC3 192 kbs
Language : Russian
Audio #3
ID : 4
Format : AC-3
Format/Info : Audio Coding 3
Mode extension : CM (complete main)
Codec ID : A_AC3
Duration : 2h 9mn
Bit rate mode : Constant
Bit rate : 192 Kbps
Channel(s) : 2 channels
Channel positions : Front: L R
Sampling rate : 48.0 KHz
Stream size : 179 MiB (4%)
Title : Original @ AC3 192 kbs
Language : English
Text #1
ID : 5
Format : ASS
Codec ID : S_TEXT/ASS
Codec ID/Info : Advanced Sub Station Alpha
Language : Russian
Text #2
ID : 6
Format : ASS
Codec ID : S_TEXT/ASS
Codec ID/Info : Advanced Sub Station Alpha
Language : English
Menu
00:00:00.000 : en:Credits
00:01:05.000 : en:City Of Love
00:02:59.000 : en:Chevasse On The Case
00:06:56.000 : en:File Facts
00:09:57.000 : en:Report To Mr. X
00:14:52.000 : en:Such An American Face
00:17:20.000 : en:Uncommitted Crime
00:22:54.000 : en:Ariane To The Rescue
00:26:35.000 : en:Another Woman
00:32:45.000 : en:An Afternoon Date
00:39:07.000 : en:Goings And Comings
00:42:42.000 : en:Detailed Dossier
00:46:34.000 : en:Burning Mistake
00:49:42.000 : en:Date To Break A Date
00:54:55.000 : en:The Blur Of First Love
00:58:32.000 : en:Bon Voyage
01:03:16.000 : en:Icebox Memento
01:05:13.000 : en:Read All About Him
01:05:59.000 : en:Sighting Of Note
01:09:15.000 : en:A Date At The Opera
01:14:00.000 : en:That Touch Of Ermine
01:17:19.000 : en:Very Susceptible
01:21:45.000 : en:Case Of The Missing Coat
01:25:17.000 : en:Anklet From Spain
01:28:50.000 : en:Her First American
01:32:43.000 : en:Dictation
01:38:05.000 : en:Taking Dictation
01:40:52.000 : en:Open Bar
01:43:54.000 : en:Sweating It Out
01:48:17.000 : en:New Client
01:53:44.000 : en:The Lady Of Interest
01:56:42.000 : en:Such A Little Fish
02:00:10.000 : en:Sensible Goodbye
02:04:53.000 : en:The Train Station
02:07:04.000 : en:All Abroad
02:09:02.000 : en:Life Sentence
Скриншоты:
       
-
Вне форума [Профиль] [ЛС]
Похожие темы
Форум Тема Автор Торрент Отв. Посл. сообщение
./templates/default/images/folder_dl.gif Художественная литература Гарсиа Маркес Габриель - Любовь во время чумы [Князев Игорь, 2011 г., 192 kbps, MP3] Omen
1 | 0

0 | 1048

8

2011-10-10 19:53
Omen Последнее
./templates/default/images/folder_dl.gif Фильмы 2011-2016 Последняя любовь на Земле / Perfect Sense (Дэвид МакКензи) [2011 г., драма, мелодрама, DVDRip] Лицензия sassad
1 | 0

0 | 914

26

2011-12-10 20:22
sassad Последнее
./templates/default/images/folder_dl.gif Обучающая и научно-популярная литература Димитрий Семеник | Наполни жизнь любовью [2010] [MP3] Omen
1 | 0

0 | 403

1

2013-01-14 21:04
Omen Последнее
./templates/default/images/folder_dl.gif Фильмы 2011-2016 Любовь с первого вздоха (Ольга Ланд) (Комедия, 2013) SATRip Omen
1 | 0

0 | 706

26

2013-05-05 19:58
Omen Последнее
./templates/default/images/folder_dl.gif T Фильмы 2001-2010 Выживут только любовники / Only Lovers Left Alive (Джим Джармуш / Jim Jarmusch, 2013, Фантастика, триллер, драма) DVDScr [VO] Omen
1 | 0

0 | 898

18

2014-03-10 18:38
Omen Последнее
./templates/default/images/folder_dl.gif Приключения и квесты Mahjong Detective: The Stolen Love / Маджонг Детектив. Похищенная Любовь [P] [RUS] (2015) Omen
14 | 2

0 | 362

10

2015-06-08 21:00
Omen Последнее
Показать сообщения:    
Ответить на тему

Текущее время: Сегодня 15:08

Часовой пояс: GMT + 3



Вы не можете начинать темы
Вы не можете отвечать на сообщения
Вы не можете редактировать свои сообщения
Вы не можете удалять свои сообщения
Вы не можете голосовать в опросах
Вы не можете прикреплять файлы к сообщениям
Вы не можете скачивать файлы