Сегодня идет свободное скачивание без начисления Download

Филадельфийская история / The Philadelphia story (1940) [720p] WEB-DL

Ответить на тему
 
Автор
Сообщение

UndegraundMen ®

Стаж: 3 года 9 месяцев

Сообщений: 28329

Торрент-статистика

Пост 20-Мар-2013 14:10

[Цитировать]

Филадельфийская история / The Philadelphia story- Название: Филадельфийская история
Оригинальное название: The Philadelphia story
Год выпуска: 1940
Жанр: Комедия, мелодрама
Выпущено: США, Loew's Inc., Metro-Goldwyn-Mayer (MGM)
Описание фильма:
Богатая филадельфийская красавица из высшего общества Трейси Лорд собирается вступить в новый брак и не хочет никакой шумихи вокруг своего имени. Но с помощью шантажа издатель «жёлтого» журнала добивается присутствия на свадьбе своих репортёров. В ожидании сенсации они являются в дом и там разворачиваются события, которых не ожидал никто. Накануне свадьбы Трейси понимает, что жениха не любит, а нравится ей один из подосланных в её дом журналистов. Она и не подозревает, что за всей кутерьмой стоит её бывший муж, который срочно вернулся из Южной Америки, чтобы вернуть себе руку и сердце Трейси...
Режиссер: Джордж Кьюкор
В ролях: Кэри Грант, Кэтрин Хепберн, Джеймс Стюарт, Рут Хасси, Джон Ховард, Роланд Янг, Джон Холлидэй, Мэри Нэш, Вирджиния Вейдлер, Генри Дэниелл, Лайонел Пейп, Рекс Эванс, Кинг Баггот, Хиллари Брук, Веда Баклэнд, Лита Шеврет, Русс Кларк, Дэвид Клайд, Роберт Де Брюс, Дороти Фэй, Клод Кинг, Эрик Мэйн, Флорин МакКинни, Ли Фелпс, Хильда Плоурайт, Милдред Шоу, Джозеф Суини, Хелен Уитни
Продолжительность: 01:52:16
Перевод: Многоголосый закадровый
Субтитры: Русские, Английские
Видеокодек: MPEG-4 AVC
Битрейт видео: ~ 3873 Кбит/с
Размер кадра: 982x720
Качество видео: WEB-DL
Аудио:
1. Dolby Digital Русский 2.0 / 48 kHz / 192 kbps (Многоголосый закадровый, ОРТ)
2. Dolby Digital Русский 2.0 / 48 kHz / 192 kbps (Многоголосый закадровый, Film Prestige)
3. Dolby Digital Русский 2.0 / 48 kHz / 192 kbps (Многоголосый закадровый, Laser Video)
4. Dolby Digital Русский 2.0 / 48 kHz / 192 kbps (Многоголосый закадровый)
5. Dolby Digital Английский 2.0 / 48 kHz / 192 kbps

Награды и номинации

Оскар, Американская киноакадемия. США, 1941 год
Победитель (2):
Лучшая мужская роль (Джеймс Стюарт)
Лучший адаптированный сценарий (Дональд Огден Стюарт)
Номинации (4):
Лучший фильм
Лучшая женская роль (Кэтрин Хепберн)
Лучшая женская роль второго плана (Рут Хасси)
Лучший режиссер (Джордж Кьюкор)
Национальный совет США по сохранности фильмов. 1995 год.
Победитель (1):
Включен в Национальный реестр фильмов США для хранения в Библиотеке Конгресса, как "культурно, исторически и эстетически значимый"
Премия Нью-йоркских критиков США. 1940 год.
Победитель (1):
Лучшая актриса (Кэтрин Хепберн)

MediaInfo

Общее
Уникальный идентификатор : 231512012901421353363138622366753960741 (0xAE2B9781123E2933A800467682B73325)
Полное имя : C:\Users\Skardinal\The.Philadelphia.Story.1940.720p.WEB-DL.AAC 2.0.H.264.mkv
Формат : Matroska
Версия формата : Version 2
Размер файла : 3,80 Гбайт
Продолжительность : 1 ч. 52 м.
Общий поток : 4844 Кбит/сек
Дата кодирования : UTC 2012-12-31 16:57:40
Программа кодирования : mkvmerge v5.0.1 ('Es ist Sommer') built on Oct 9 2011 11:55:43
Библиотека кодирования : libebml v1.2.2 + libmatroska v1.3.0
Видео
Идентификатор : 1
Формат : AVC
Формат/Информация : Advanced Video Codec
Профиль формата : [url=mailto:[email protected]][email protected][/url]
Параметр CABAC формата : Нет
Параметр ReFrames формата : 2 кадра
Идентификатор кодека : V_MPEG4/ISO/AVC
Продолжительность : 1 ч. 52 м.
Ширина : 982 пикселя
Высота : 720 пикселей
Соотношение сторон : 4:3
Частота кадров : 23,976 кадра/сек
Цветовое пространство : YUV
Субдискретизация насыщенности : 4:2:0
Битовая глубина : 8 бит
Тип развёртки : Прогрессивная
Язык : English
Default : Да
Forced : Нет
Основные цвета : BT.709-5, BT.1361, IEC 61966-2-4, SMPTE RP177
Характеристики трансфера : BT.709-5, BT.1361
Коэффициенты матрицы : BT.709-5, BT.1361, IEC 61966-2-4 709, SMPTE RP177
Аудио #1
Идентификатор : 2
Формат : AC-3
Формат/Информация : Audio Coding 3
Расширение режима : CM (complete main)
Параметр Endianness формата : Big
Идентификатор кодека : A_AC3
Продолжительность : 1 ч. 52 м.
Вид битрейта : Постоянный
Битрейт : 192 Кбит/сек
Каналы : 2 канала
Расположение каналов : Front: L R
Частота : 48,0 КГц
Битовая глубина : 16 бит
Метод сжатия : С потерями
Размер потока : 154 Мбайт (4%)
Заголовок : MVO OPT
Язык : Russian
Default : Да
Forced : Нет
Аудио #2
Идентификатор : 3
Формат : AC-3
Формат/Информация : Audio Coding 3
Расширение режима : CM (complete main)
Параметр Endianness формата : Big
Идентификатор кодека : A_AC3
Продолжительность : 1 ч. 52 м.
Вид битрейта : Постоянный
Битрейт : 192 Кбит/сек
Каналы : 2 канала
Расположение каналов : Front: L R
Частота : 48,0 КГц
Битовая глубина : 16 бит
Метод сжатия : С потерями
Размер потока : 154 Мбайт (4%)
Заголовок : MVO Film Prestige
Язык : Russian
Default : Нет
Forced : Нет
Аудио #3
Идентификатор : 4
Формат : AC-3
Формат/Информация : Audio Coding 3
Расширение режима : CM (complete main)
Параметр Endianness формата : Big
Идентификатор кодека : A_AC3
Продолжительность : 1 ч. 52 м.
Вид битрейта : Постоянный
Битрейт : 192 Кбит/сек
Каналы : 2 канала
Расположение каналов : Front: L R
Частота : 48,0 КГц
Битовая глубина : 16 бит
Метод сжатия : С потерями
Размер потока : 154 Мбайт (4%)
Заголовок : MVO Laser Video
Язык : Russian
Default : Нет
Forced : Нет
Аудио #4
Идентификатор : 5
Формат : AC-3
Формат/Информация : Audio Coding 3
Расширение режима : CM (complete main)
Параметр Endianness формата : Big
Идентификатор кодека : A_AC3
Продолжительность : 1 ч. 52 м.
Вид битрейта : Постоянный
Битрейт : 192 Кбит/сек
Каналы : 2 канала
Расположение каналов : Front: L R
Частота : 48,0 КГц
Битовая глубина : 16 бит
Метод сжатия : С потерями
Размер потока : 154 Мбайт (4%)
Заголовок : MVO
Язык : Russian
Default : Нет
Forced : Нет
Аудио #5
Идентификатор : 6
Формат : AAC
Формат/Информация : Advanced Audio Codec
Профиль формата : LC
Идентификатор кодека : A_AAC
Продолжительность : 1 ч. 52 м.
Каналы : 2 канала
Расположение каналов : Front: L R
Частота : 48,0 КГц,
Метод сжатия : С потерями
Язык : English
Default : Нет
Forced : Нет
Текст #1
Идентификатор : 7
Формат : UTF-8
Идентификатор кодека : S_TEXT/UTF8
Идентификатор кодека/Информация : UTF-8 Plain Text
Язык : English
Default : Нет
Forced : Нет
Текст #2
Идентификатор : 8
Формат : UTF-8
Идентификатор кодека : S_TEXT/UTF8
Идентификатор кодека/Информация : UTF-8 Plain Text
Язык : Russian
Default : Нет
Forced : Нет
Меню
00:00:00.000 : en:Credits.
00:01:33.000 : en:Uncoupling.
00:02:16.000 : en:Bride's high standards.
00:06:12.000 : en:George saddles up.
00:09:34.000 : en:The Philadelphia story.
00:13:41.000 : en:Spies invade the manor.
00:17:54.000 : en:Dexter's small blackmail.
00:23:32.000 : en:Lydia the Tattooed Lady.
00:26:46.000 : en:Tracy meets the press.
00:30:16.000 : en:The family for lunch.
00:35:55.000 : en:Library research.
00:39:20.000 : en:Patron lady.
00:42:17.000 : en:Virgin goddess.
00:47:37.000 : en:My, she was yar.
00:51:51.000 : en:Right kind of daughter.
00:55:41.000 : en:Exposed and pinched.
00:57:47.000 : en:Drinks for everyone.
01:02:34.000 : en:Talkative visitor.
01:08:03.000 : en:Class system.
01:14:33.000 : en:Hearthfires and holocausts.
01:17:37.000 : en:Advice to Liz.
01:19:35.000 : en:The mighty fallen.
01:24:17.000 : en:Eye openers.
01:28:30.000 : en:Dinah's dream.
01:31:16.000 : en:Missing memory and watch.
01:34:51.000 : en:Not very yar.
01:40:12.000 : en:George's letter.
01:44:01.000 : en:There goes the groom.
01:46:45.000 : en:Tracy's announcement.
01:51:31.000 : en:Cast List.
Скриншоты:        -
Вне форума [Профиль] [ЛС]
Показать сообщения:    
Ответить на тему

Текущее время: Сегодня 14:46

Часовой пояс: GMT + 3



Вы не можете начинать темы
Вы не можете отвечать на сообщения
Вы не можете редактировать свои сообщения
Вы не можете удалять свои сообщения
Вы не можете голосовать в опросах
Вы не можете прикреплять файлы к сообщениям
Вы не можете скачивать файлы