Сегодня идет свободное скачивание без начисления Download

Парк Юрского периода / Jurassic Park (Стивен Спилберг)(Приключения, фантастика, семейный.1993) | Blu-Ray Remux

Ответить на тему
 
Автор
Сообщение

KirovSOFT ®

Пол:

Стаж: 4 года 8 месяцев

Сообщений: 1581

Откуда: Кировская область -Оричи

Торрент-статистика

Пост 20-Мар-2013 19:00

[Цитировать]

Парк Юрского периода / Jurassic Park

Год выпуска: 1993
Страна: США, Amblin Entertainment, Universal Pictures
Жанр: Приключения, фантастика, семейный
Продолжительность: 02:06:36
Перевод: Профессиональный многоголосый, авторский одноголосый
Субтитры: Английские
В ролях: Сэм Нил, Лора Дерн, Джефф Голдблюм, Ричард Аттенборо, Джозеф Маццелло, Ариана Ричардс, Уэйн Найт, Боб Пек, Мартин Ферреро, Сэмюэл Л. Джексон, Б.Д. Вонг, Джералд Р. Молен, Мигель Сандовал, Кэмерон Тор, Кристофер Джон Филдс, Уайтби Хертфорд, Дин Канди, Джофри С. Браун, Том Мишлер, Грег Бёрсон, Адриан Эскобар, Ричард Кайли
Режиссёр: Стивен Спилберг

Экспансивный богач и профессор уговаривает пару ученых-палеонтологов приехать на остров у побережья Коста-Рики, где он устроил реликтовый парк. В парке этом водятся древние зверушки — динозавры, которые по его идее и должны стать гвоздем программы нового аттракциона. До открытия остается несколько дней, а один из работников, пытаясь продать «рассаду» налево, нарушает систему охраны, что в комплексе с грозовым ливнем приводит к тому, что доисторические животные оказываются на воле, где действуют в соответствии со своими инстинктами.

Качество: Blu-Ray Remux
Формат: MKV
Видео кодек: VC-1
Аудио кодек: АС3, DTS, DTS-HD MA
Видео: VC-1, 31.2 Мбит/с, 1920x1080, 23,976 кадр/с
Аудио:
1. Русский (АС3, 6 ch, 384 Кбит/с) - Профессиональный многоголосый (Киномания)
2. Русский (АС3, 2 ch, 192 Кбит/с) - Профессиональный многоголосый (НТВ)
3. Русский (АС3, 2 ch, 192 Кбит/с) - Профессиональный многоголосый (Премьер видеофильм)
4. Русский (АС3, 6 ch, 448 Кбит/с) - Профессиональный многоголосый (Universal)
5. Русский (АС3, 6 ch, 448 Кбит/с) - Профессиональный многоголосый (R5 Пифагор)
6. Русский (АС3, 2 ch, 384 Кбит/с) - Авторский одноголосый (Леонид Володарский)
7. Русский (DTS, 6 ch, 755 Кбит/с) - Авторский одноголосый (Андрей Гаврилов)
8. Русский (DTS, 6ch, 755 Кбит/с) - Авторский одноголосый (Юрий Живов)
9. Русский (DTS-HD MA, 6 ch, 3019 Кбит/с) - Авторский одноголосый (Яковлев, он же Фёдоров (Самарский))
10. Английский (DTS, 6 ch, 1510Кбит/с)

MediaInfo:

General
Код:
Unique ID : 186356514552869263421267905649404555855 (0x8C32F58C39619D15BFA1C8530CE8324F)
Complete name : D:ЗагрузкиРаздачиПарк Юрского периода_1993_BluRay.Remux.1080p_DestinationMan.mkv
Format : Matroska
Format version : Version 2
File size : 33.9 GiB
Duration : 2h 6mn
Overall bit rate mode : Variable
Overall bit rate : 38.3 Mbps
Encoded date : UTC 2013-03-18 20:40:44
Writing application : mkvmerge v5.6.0 ('Kenya Kane') built on Jun 29 2012 15:01:44
Writing library : libebml v1.2.3 + libmatroska v1.3.0
Video
ID : 1
Format : VC-1
Format profile : [email protected]
Codec ID : WVC1
Codec ID/Hint : Microsoft
Duration : 2h 6mn
Bit rate : 31.2 Mbps
Width : 1 920 pixels
Height : 1 080 pixels
Display aspect ratio : 16:9
Frame rate : 23.976 fps
Chroma subsampling : 4:2:0
Bit depth : 8 bits
Scan type : Progressive
Compression mode : Lossy
Bits/(Pixel*Frame) : 0.628
Stream size : 27.6 GiB (81%)
Default : No
Forced : No
Audio #1
ID : 2
Format : AC-3
Format/Info : Audio Coding 3
Mode extension : CM (complete main)
Codec ID : A_AC3
Duration : 2h 6mn
Bit rate mode : Constant
Bit rate : 448 Kbps
Channel(s) : 6 channels
Channel positions : Front: L C R, Side: L R, LFE
Sampling rate : 48.0 KHz
Bit depth : 16 bits
Compression mode : Lossy
Stream size : 406 MiB (1%)
Title : Universal
Language : Russian
Default : Yes
Forced : No
Audio #2
ID : 3
Format : AC-3
Format/Info : Audio Coding 3
Mode extension : CM (complete main)
Codec ID : A_AC3
Duration : 2h 6mn
Bit rate mode : Constant
Bit rate : 384 Kbps
Channel(s) : 6 channels
Channel positions : Front: L C R, Side: L R, LFE
Sampling rate : 48.0 KHz
Bit depth : 16 bits
Compression mode : Lossy
Stream size : 348 MiB (1%)
Title : Киномания
Language : Russian
Default : No
Forced : No
Audio #3
ID : 4
Format : AC-3
Format/Info : Audio Coding 3
Mode extension : CM (complete main)
Codec ID : A_AC3
Duration : 2h 6mn
Bit rate mode : Constant
Bit rate : 448 Kbps
Channel(s) : 6 channels
Channel positions : Front: L C R, Side: L R, LFE
Sampling rate : 48.0 KHz
Bit depth : 16 bits
Compression mode : Lossy
Stream size : 406 MiB (1%)
Title : Пифагор
Language : Russian
Default : No
Forced : No
Audio #4
ID : 5
Format : AC-3
Format/Info : Audio Coding 3
Mode extension : CM (complete main)
Codec ID : A_AC3
Duration : 2h 6mn
Bit rate mode : Constant
Bit rate : 192 Kbps
Channel(s) : 2 channels
Channel positions : Front: L R
Sampling rate : 48.0 KHz
Bit depth : 16 bits
Compression mode : Lossy
Stream size : 174 MiB (1%)
Title : НТВ
Language : Russian
Default : No
Forced : No
Audio #5
ID : 6
Format : AC-3
Format/Info : Audio Coding 3
Mode extension : CM (complete main)
Codec ID : A_AC3
Duration : 2h 6mn
Bit rate mode : Constant
Bit rate : 192 Kbps
Channel(s) : 2 channels
Channel positions : Front: L R
Sampling rate : 48.0 KHz
Bit depth : 16 bits
Compression mode : Lossy
Stream size : 174 MiB (1%)
Title : Премьер Видеофильм
Language : Russian
Default : No
Forced : No
Audio #6
ID : 7
Format : DTS
Format/Info : Digital Theater Systems
Codec ID : A_DTS
Duration : 2h 6mn
Bit rate mode : Constant
Bit rate : 755 Kbps
Channel(s) : 6 channels
Channel positions : Front: L C R, Side: L R, LFE
Sampling rate : 48.0 KHz
Bit depth : 24 bits
Compression mode : Lossy
Stream size : 683 MiB (2%)
Title : Живов
Language : Russian
Default : No
Forced : No
Audio #7
ID : 8
Format : AC-3
Format/Info : Audio Coding 3
Mode extension : CM (complete main)
Codec ID : A_AC3
Duration : 2h 6mn
Bit rate mode : Constant
Bit rate : 384 Kbps
Channel(s) : 6 channels
Channel positions : Front: L C R, Side: L R, LFE
Sampling rate : 48.0 KHz
Bit depth : 16 bits
Compression mode : Lossy
Stream size : 348 MiB (1%)
Title : Гаврилов
Language : Russian
Default : No
Forced : No
Audio #8
ID : 9
Format : AC-3
Format/Info : Audio Coding 3
Mode extension : CM (complete main)
Codec ID : A_AC3
Duration : 2h 6mn
Bit rate mode : Constant
Bit rate : 384 Kbps
Channel(s) : 2 channels
Channel positions : Front: L R
Sampling rate : 48.0 KHz
Bit depth : 16 bits
Compression mode : Lossy
Stream size : 348 MiB (1%)
Title : Володарский
Language : Russian
Default : No
Forced : No
Audio #9
ID : 10
Format : DTS
Format/Info : Digital Theater Systems
Format profile : MA / Core
Codec ID : A_DTS
Duration : 2h 6mn
Bit rate mode : Variable
Bit rate : 1 561 Kbps / 1 510 Kbps
Channel(s) : 6 channels
Channel positions : Front: L C R, Side: L R, LFE
Sampling rate : 48.0 KHz
Bit depth : 24 bits
Compression mode : Lossless / Lossy
Language : Russian
Default : No
Forced : No
Audio #10
ID : 11
Format : DTS
Format/Info : Digital Theater Systems
Format profile : MA / Core
Codec ID : A_DTS
Duration : 2h 6mn
Bit rate mode : Variable
Bit rate : 1 597 Kbps / 1 510 Kbps
Channel(s) : 8 channels / 6 channels
Channel positions : Front: L C R, Side: L R, Back: L R, LFE / Front: L C R, Side: L R, LFE
Sampling rate : 48.0 KHz
Bit depth : 24 bits
Compression mode : Lossless / Lossy
Language : English
Default : No
Forced : No
Text
ID : 12
Format : PGS
Muxing mode : zlib
Codec ID : S_HDMV/PGS
Codec ID/Info : The same subtitle format used on BDs/HD-DVDs
Language : English
Default : Yes
Forced : No
Menu
00:00:00.000 : en:00:00:00.000
00:05:19.819 : en:00:05:19.819
00:10:14.739 : en:00:10:14.739
00:15:17.041 : en:00:15:17.041
00:19:33.214 : en:00:19:33.214
00:23:46.800 : en:00:23:46.800
00:31:40.148 : en:00:31:40.148
00:37:59.194 : en:00:37:59.194
00:40:26.674 : en:00:40:26.674
00:55:28.033 : en:00:55:28.033
01:01:43.241 : en:01:01:43.241
01:10:44.115 : en:01:10:44.115
01:20:01.130 : en:01:20:01.130
01:34:03.972 : en:01:34:03.972
01:39:45.313 : en:01:39:45.313
01:43:43.175 : en:01:43:43.175
01:47:56.845 : en:01:47:56.845
01:54:45.378 : en:01:54:45.378
01:58:04.411 : en:01:58:04.411
01:59:55.980 : en:01:59:55.980

   
 

_________________
Вне форума [Профиль] [ЛС]
Показать сообщения:    
Ответить на тему

Текущее время: Сегодня 17:35

Часовой пояс: GMT + 3



Вы не можете начинать темы
Вы не можете отвечать на сообщения
Вы не можете редактировать свои сообщения
Вы не можете удалять свои сообщения
Вы не можете голосовать в опросах
Вы не можете прикреплять файлы к сообщениям
Вы не можете скачивать файлы