Сегодня идет свободное скачивание без начисления Download

Ровно в полдень / High Noon (1952) [720p] BDRip

Ответить на тему
 
Автор
Сообщение

UndegraundMen ®

Стаж: 3 года 9 месяцев

Сообщений: 28329

Торрент-статистика

Пост 20-Мар-2013 20:21

[Цитировать]

Ровно в полдень / High Noon- «Simple. Powerful. Unforgettable.» - Название: Ровно в полдень
Оригинальное название: High Noon
Год выпуска: 1952
Жанр: Драма, вестерн
Выпущено: США, Stanley Kramer Productions
Описание фильма:
Шериф Уилл Кейн (Гэри Купер) и его прекрасная блондинка-квакерша Эми Фаулер (Грейс Келли) собираются навсегда покинуть городок Хэдливиль, где он долгие годы нёс службу, — с мечтой обзавестись собственным ранчо. Однако местные жители узнают, что скоро должен прибыть свирепый убийца Фрэнк Миллер (Иан МакДоналд), мечтающий отомстить Уиллу и всему городу за то, что был упрятан в тюрьму его родственник. Брат Фрэнка Бен (Шеб Вули) и ещё два бандита-стрелка, Джим Пирс (Роберт Уилк) и Джек Колби (Ли Ван Клиф), уже ждут поезд, на котором тот едет и который должен прийти «ровно в полдень». В минуту нерешительности Уилл покидает город вместе с невестой, но… внезапно останавливает коня. Останавливает с твёрдым намерением вернуться, чтобы исполнить свой долг.
Режиссер: Фред Циннеман
В ролях: Гэри Купер, Томас Митчелл, Грэйс Келли, Ллойд Бриджес, Кэти Хурадо, Отто Крюгер, Лон Чейни мл., Гарри Морган, Йен МакДональд, Ив МакВиг, Морган Фарли, Гарри Шэннон, Ли Ван Клиф, Роберт Дж. Уилки, Шеб Вули, Хоуланд Чемберлен, Люсьен Приваль
Продолжительность: 01:25:07
Перевод: Многоголосый закадровый, Двухголосый закадровый, Одноголосый закадровый
Субтитры: нет
Видеокодек: MPEG-4 AVC
Битрейт видео: ~ 7718 Кбит/с
Размер кадра: 968x720
Качество видео: BDRip
Аудио:
1. Dolby Digital Русский 2.0 / 48 kHz / 192 kbps (Многоголосый закадровый, ОРТ)
2. Dolby Digital Русский 2.0 / 48 kHz / 192 kbps (Двухголосый закадровый, New Dream Media)
3. Dolby Digital Русский 2.0 / 48 kHz / 192 kbps (Одноголосый закадровый, П.Карцев)
4. DTS Русский 1.0 / 48 kHz / 256 kbps (Одноголосый закадровый, С.Кузнецов)
5. DTS Английский 1.0 / 48 kHz / 256 kbps

Награды и номинации

Оскар, Американская киноакадемия. США. 1953 год
Победитель (4):
Лучшая мужская роль (Гэри Купер)
Лучший монтаж
Лучшая песня — «High Noon (Do Not Forsake Me, Oh My Darlin')»
Лучший саундтрек для драматических/комедийных картин
Номинации (3):
Лучший фильм
Лучший режиссер (Фред Циннеман)
Лучший адаптированный сценарий
Золотой глобус, 1953 год
Победитель (4):
Лучшая мужская роль (драма) (Гэри Купер)
Лучший саундтрек
Лучшая женская роль второго плана (Кэти Хурадо)
Лучшая работа оператора (ч/б фильмы)
Номинации (3):
Лучший фильм (драма)
Лучший сценарий
Самый многообещающий новичок среди женщин (Кэти Хурадо)
Гильдия режиссеров Америки, США. 1953 год.
Номинации (1):
Выдающиеся достижения в режиссуре (Фред Циннеман)
Кинопремия «Bodil». Копенгаген, Дания. 1953 год.
Победитель (1):
Лучший американский фильм (Фред Циннеман)
Премия сценаристов Испании. 1954 год.
Победитель (1):
Лучший иностранный фильм (Фред Циннеман)
Национальный совет кинокритиков США. 1952 год.
Победитель (1):
Вошел в десятку лучших фильмов
Кинопремия Нью-йоркских критиков. 1952 год.
Победитель (2):
Лучший фильм (драма)
Лучший режиссер (Фред Циннеман)
Гильдия писателей Америки, США. 1953 год.
Победитель (1):
Лучший адаптированный сценарий
Национальный совет США по сохранности фильмов. 1989 год.
Победитель (1):
Включен в Национальный реестр фильмов США для хранения в Библиотеке Конгресса, как "культурно, исторически и эстетически значимый".

Знаете ли вы, что...

• На главную мужскую роль приглашались Грегори Пек, Чарлтон Хестон, Марлон Брандо и Монтгомери Клифт. В итоге Уилла Кейна сыграл Гэри Купер. Актёр страдал от кровоточащей язвы, болей в спине и бедре и даже не хотел сниматься в финальной перестрелке, но всё-таки отказался от дублёра.
• Грейс Келли, сыгравшая жену Кейна, была замечена режиссёром в небродвейской постановке.
• Фильм стал дебютной работой в кино актёра Ли Ван Клифа, хотя он в течение всего фильма не произносит ни одной реплики.
• Во время съёмок Карл Форман был внесен в Чёрный список Голливуда, и Крамер снял его имя с титров (хотя это не помешало тому, что Форман был номинирован на «Оскар»).
• Фред Циннеман боролся против колоризации фильма, но после его смерти она была совершена компанией Теда Тёрнера

MediaInfo

Общее
Уникальный идентификатор : 218917003313353607804225783001238723918 (0xA4B1E1966EC506C2AE87AF297D97DD4E)
Полное имя : C:\ High Noon. (1952). 720p..mkv
Формат : Matroska
Версия формата : Version 2
Размер файла : 5,65 Гбайт
Продолжительность : 1 ч. 25 м.
Общий поток : 9494 Кбит/сек
Дата кодирования : UTC 2012-12-10 02:18:05
Программа кодирования : mkvmerge v5.0.1 ('Es ist Sommer') built on Nov 6 2011 16:23:40
Библиотека кодирования : libebml v1.2.2 + libmatroska v1.3.0
Видео
Идентификатор : 1
Формат : AVC
Формат/Информация : Advanced Video Codec
Профиль формата : [url=mailto:[email protected]][email protected][/url]
Параметр CABAC формата : Да
Параметр ReFrames формата : 11 кадров
Идентификатор кодека : V_MPEG4/ISO/AVC
Продолжительность : 1 ч. 25 м.
Битрейт : 7718 Кбит/сек
Ширина : 968 пикселей
Высота : 720 пикселей
Соотношение сторон : 4:3
Частота кадров : 23,976 кадра/сек
Цветовое пространство : YUV
Субдискретизация насыщенности : 4:2:0
Битовая глубина : 8 бит
Тип развёртки : Прогрессивная
Бит/(Пиксели*Кадры) : 0.462
Размер потока : 4,59 Гбайт (81%)
Библиотека кодирования : x264 core 125 r2200 999b753
Настройки программы : cabac=1 / ref=11 / deblock=1:-3:-3 / analyse=0x3:0x113 / me=umh / subme=10 / psy=1 / psy_rd=1.00:0.15 / mixed_ref=1 / me_range=32 / chroma_me=1 / trellis=2 / 8x8dct=1 / cqm=0 / deadzone=21,11 / fast_pskip=1 / chroma_qp_offset=-3 / threads=12 / lookahead_threads=2 / sliced_threads=0 / nr=0 / decimate=1 / interlaced=0 / bluray_compat=0 / constrained_intra=0 / bframes=9 / b_pyramid=2 / b_adapt=2 / b_bias=0 / direct=1 / weightb=1 / open_gop=0 / weightp=2 / keyint=240 / keyint_min=23 / scenecut=40 / intra_refresh=0 / rc=crf / mbtree=0 / crf=16.7 / qcomp=0.60 / qpmin=0 / qpmax=69 / qpstep=4 / ip_ratio=1.40 / pb_ratio=1.30 / aq=1:1.00
Язык : English
Default : Да
Forced : Нет
Аудио #1
Идентификатор : 2
Формат : AC-3
Формат/Информация : Audio Coding 3
Расширение режима : CM (complete main)
Параметр Endianness формата : Big
Идентификатор кодека : A_AC3
Продолжительность : 1 ч. 25 м.
Вид битрейта : Постоянный
Битрейт : 192 Кбит/сек
Каналы : 2 канала
Расположение каналов : Front: L R
Частота : 48,0 КГц
Битовая глубина : 16 бит
Метод сжатия : С потерями
Размер потока : 117 Мбайт (2%)
Заголовок : MVO |Первый канал|
Язык : Russian
Default : Да
Forced : Нет
Аудио #2
Идентификатор : 3
Формат : AC-3
Формат/Информация : Audio Coding 3
Расширение режима : CM (complete main)
Параметр Endianness формата : Big
Идентификатор кодека : A_AC3
Продолжительность : 1 ч. 25 м.
Вид битрейта : Постоянный
Битрейт : 192 Кбит/сек
Каналы : 2 канала
Расположение каналов : Front: L R
Частота : 48,0 КГц
Битовая глубина : 16 бит
Метод сжатия : С потерями
Размер потока : 117 Мбайт (2%)
Заголовок : DVO |New Dream Media|
Язык : Russian
Default : Нет
Forced : Нет
Аудио #3
Идентификатор : 4
Формат : AC-3
Формат/Информация : Audio Coding 3
Расширение режима : CM (complete main)
Параметр Endianness формата : Big
Идентификатор кодека : A_AC3
Продолжительность : 1 ч. 25 м.
Вид битрейта : Постоянный
Битрейт : 192 Кбит/сек
Каналы : 2 канала
Расположение каналов : Front: L R
Частота : 48,0 КГц
Битовая глубина : 16 бит
Метод сжатия : С потерями
Размер потока : 117 Мбайт (2%)
Заголовок : AVO |П.Карцев|
Язык : Russian
Default : Нет
Forced : Нет
Аудио #4
Идентификатор : 5
Формат : DTS
Формат/Информация : Digital Theater Systems
Идентификатор кодека : A_DTS
Продолжительность : 1 ч. 25 м.
Вид битрейта : Постоянный
Битрейт : 256 Кбит/сек
Каналы : 1 канал
Расположение каналов : Front: C
Частота : 48,0 КГц
Битовая глубина : 16 бит
Метод сжатия : С потерями
Размер потока : 156 Мбайт (3%)
Заголовок : AVO |С.Кузнецов|
Язык : Russian
Default : Нет
Forced : Нет
Аудио #5
Идентификатор : 6
Формат : DTS
Формат/Информация : Digital Theater Systems
Идентификатор кодека : A_DTS
Продолжительность : 1 ч. 25 м.
Вид битрейта : Постоянный
Битрейт : 755 Кбит/сек
Каналы : 1 канал
Расположение каналов : Front: C
Частота : 48,0 КГц
Битовая глубина : 16 бит
Метод сжатия : С потерями
Размер потока : 459 Мбайт (8%)
Язык : English
Default : Нет
Forced : Нет
Скриншоты:
Вне форума [Профиль] [ЛС]
Показать сообщения:    
Ответить на тему

Текущее время: Сегодня 13:33

Часовой пояс: GMT + 3



Вы не можете начинать темы
Вы не можете отвечать на сообщения
Вы не можете редактировать свои сообщения
Вы не можете удалять свои сообщения
Вы не можете голосовать в опросах
Вы не можете прикреплять файлы к сообщениям
Вы не можете скачивать файлы