Сегодня идет свободное скачивание без начисления Download

Девочки! Девочки! Девочки! / Girls! Girls! Girls! (1962) DVDRip [H.264]

Ответить на тему
 
Автор
Сообщение

UndegraundMen ®

Стаж: 3 года 9 месяцев

Сообщений: 28329

Торрент-статистика

Пост 21-Мар-2013 18:41

[Цитировать]

Девочки! Девочки! Девочки! / Girls! Girls! Girls! (1962) DVDRip [H.264] - Русское название: Девочки! Девочки! Девочки!
Оригинальное название: Girls! Girls! Girls!
Год выпуска: 1962
Жанр: Комедия, Мюзикл
Страна: США
Производство: Hal Wallis Productions
Описание фильма:
Музыкальная комедия, в которой Элвис Пресли пытается найти ту самую единственную среди целой армии девушек, преследующих его. Элвис играет Росса Карпентера, рыбака, который любит жизнь и море. Когда он узнает, что его босс уезжает в Аризону, Росс должен найти способ купить Westwind, лодку, которую он и его отец строили.
Режиссер: Норман Торог
Сценарий: Аллан Уайсс, Эдвард Энхалт
Продюсер: Пол Натан, Хэл Б. Уоллис
Актеры: Элвис Пресли, Стелла Стивенс, Джереми Слейт, Лорел Гудвин, Бенсон Фонг, Роберт Штраусс, Гай Ли, Фрэнк Пулья, Лили Валенти, Бела Кво
Продолжительность: 01:38:49
Перевод: Одноголосый закадровый
Субтитры: Отсутствуют

Дата мировой премьеры: 21 ноября 1962
Видеокодек: MPEG-4 AVC/H.264
Битрейт видео: ~2100 Кбит/сек
Размер кадра: 720x400
Качество видео: DVDRip
Аудиокодек: AC3 2.0
Битрейт аудио: 192 kbps

Знаете ли вы, что...

Во время работы над песней Return To Sender, Элвис подражает своими движениями известному американскому певцу рок-н-ролла Джеки Уилсону.
Рабочие названия этого фильма: «Cumbo Ya Ya» (рус. Все говорят сразу), «Приём на борту», «Девушка в каждом порту» и «Джамбалайя».
В сцене, где Элвис исполняет песню «Where Do You Come From» для Лорел Гудвин показана та же Каменная Готическая Церковь, которая показывается двадцатью годами ранее в фильме «Идти своим путём» с участием Бинга Кросби и Барри Фицджеральда.

Награды:

Золотой глобус, 1963 год
Номинации (1):
Лучший фильм (мюзикл)

MediaInfo:

General
Unique ID : 214281355228058166504047706154537809395 (0xA135167DB70E12C9B7FE51C46D7375F3)
Complete name : H:\Downloads\Девочки! Девочки! Девочки!.mkv
Format : Matroska
Format version : Version 2
File size : 1.56 GiB
Duration : 1h 38mn
Overall bit rate : 2 263 Kbps
Encoded date : UTC 2013-03-20 08:13:12
Writing application : mkvmerge v5.7.0 ('The Whirlwind') built on Jul 29 2012 15:12:35
Writing library : libebml v1.2.3 + libmatroska v1.3.0
Video
ID : 1
Format : AVC
Format/Info : Advanced Video Codec
Format profile : [url=mailto:[email protected]][email protected][/url]
Format settings, CABAC : Yes
Format settings, ReFrames : 8 frames
Muxing mode : Header stripping
Codec ID : V_MPEG4/ISO/AVC
Duration : 1h 38mn
Bit rate : 2 100 Kbps
Width : 720 pixels
Height : 400 pixels
Display aspect ratio : 16:9
Frame rate mode : Constant
Frame rate : 23.976 fps
Color space : YUV
Chroma subsampling : 4:2:0
Bit depth : 8 bits
Scan type : Progressive
Bits/(Pixel*Frame) : 0.304
Stream size : 1.40 GiB (90%)
Title : Girls! Girls! Girls!
Writing library : x264 core 129 r2230 1cffe9f
Encoding settings : cabac=1 / ref=8 / deblock=1:0:0 / analyse=0x3:0x113 / me=umh / subme=9 / psy=1 / psy_rd=1.00:0.00 / mixed_ref=1 / me_range=32 / chroma_me=1 / trellis=2 / 8x8dct=1 / cqm=0 / deadzone=21,11 / fast_pskip=1 / chroma_qp_offset=-2 / threads=6 / lookahead_threads=1 / sliced_threads=0 / nr=0 / decimate=0 / interlaced=0 / bluray_compat=0 / constrained_intra=0 / bframes=3 / b_pyramid=2 / b_adapt=2 / b_bias=0 / direct=3 / weightb=1 / open_gop=0 / weightp=2 / keyint=240 / keyint_min=23 / scenecut=40 / intra_refresh=0 / rc_lookahead=40 / rc=2pass / mbtree=1 / bitrate=2100 / ratetol=25.0 / qcomp=0.60 / qpmin=10 / qpmax=51 / qpstep=4 / cplxblur=20.0 / qblur=0.5 / ip_ratio=1.40 / aq=1:1.00
Language : English
Default : Yes
Forced : No
Audio
ID : 2
Format : AC-3
Format/Info : Audio Coding 3
Mode extension : CM (complete main)
Format settings, Endianness : Big
Muxing mode : Header stripping
Codec ID : A_AC3
Duration : 1h 38mn
Bit rate mode : Constant
Bit rate : 192 Kbps
Channel(s) : 2 channels
Channel positions : Front: L R
Sampling rate : 48.0 KHz
Bit depth : 16 bits
Compression mode : Lossy
Stream size : 136 MiB (8%)
Title : Любительский одноголосый
Language : Russian
Default : Yes
Forced : No
Скриншоты:                    
Вне форума [Профиль] [ЛС]
Похожие темы
Форум Тема Автор Торрент Отв. Посл. сообщение
./templates/default/images/folder_sticky.gif Ролики, сайт рипы Реально пьяные Девочки (33 эпизода).Drunk Sex, All Sex,Group sex, CamRip] Fanatik
2 | 0

0 | 936

64

2016-03-09 17:33
Fanatik Последнее
Показать сообщения:    
Ответить на тему

Текущее время: Сегодня 09:47

Часовой пояс: GMT + 3



Вы не можете начинать темы
Вы не можете отвечать на сообщения
Вы не можете редактировать свои сообщения
Вы не можете удалять свои сообщения
Вы не можете голосовать в опросах
Вы не можете прикреплять файлы к сообщениям
Вы не можете скачивать файлы