Сегодня идет свободное скачивание без начисления Download

Дик Трэйси / Dick Tracy (1990) BDRip [480p] iPhone

Ответить на тему
 
Автор
Сообщение

UndegraundMen ®

Стаж: 3 года 9 месяцев

Сообщений: 28329

Торрент-статистика

Пост 22-Мар-2013 21:12

[Цитировать]

Дик Трэйси / Dick Tracy (1990) BDRip [480p] iPhone
«Their turf. Their game. Their rules. They didn't count on HIS law...»
- Общая информация
Русское название: Дик Трэйси
Оригинальное название: Dick Tracy
Год: 1990
Страна/Студия: США / © Touchstone Pictures, Silver Screen Partners IV, Mulholland Productions
Жанр: боевик, триллер, мелодрама, криминал
Продолжительность: 01:45:05
Перевод: Русский дублированный (СВ Дубль), многоголосый закадровый (Blu-ray US)
Субтитры: Вшитые отключаемые
Язык субтитров: Русский, Английский
Навигация: по главам (с изображениями)
Рейтинг MPAA -PG-Создатели и актеры
Режиссёр: Уоррен Битти
Сценарий: Джим Кэш, Джек Эппс мл., Честер Гулд
Продюсер: Уоррен Битти, Джон Ландау, Арт Линсон
В ролях: Уоррен Битти, Аль Пачино, Мадонна, Гленн Хедли, Чарли Корсмо, Дастин Хоффман, Чарльз Дёрнинг, Пол Сорвино, Майкл Дж. Поллард, Джеймс Кин
Описание: Тридцатые годы. Чикаго. В городе всем заправляет банда головорезов, которых никто не может остановить. Единственный, кому это под силу, - отважный сыщик Дик Трэйси. И он не отступит, даже если на его пути оказывается главарь мафии. Но сердце бесстрашного героя может не устоять перед чарами соблазнительной красотки...-Дата мировой премьеры: 14 июня 1990
Дата российской премьеры: -
Дата выхода DVD релиза: 14 июня 2011, «Уолт Дисней Компани СНГ»
Дата выхода Blu-Ray релиза: 5 марта 2013, «Уолт Дисней Компани СНГ»-SD 480p
Видео: H.264, 23.976 fps, ~ 1800 Кбит/сек, [email protected] (1.85:1)
Аудио:
* ААС 2.0 140 kbps - Русский дублированный (СВ Дубль)
* ААС 2.0 200 kbps - Русский многоголосый закадровый (Blu-ray US)
* ААС 2.0 192 kbps - Английский
* АС3 5.1 640 kbps - Английский
Субтитры:
* 3GPP Text - Русский
* 3GPP Text - Английский
* 3GPP Text - Английский (SDH)

Media Info

Код:
Общее
Полное имя : /Users/gekkas/Movies/CREATE/Dick Tracy.1990 (SD).m4v
Формат : MPEG-4
Идентификатор кодека : M4V
Размер файла : 1,72 Гбайт
Продолжительность : 1 ч. 45 м.
Режим общего битрейта : Переменный
Общий поток : 2337 Кбит/сек
Название фильма : Dick Tracy
Исполнитель : Warren Beatty
Жанр : Drama
Дата записи : UTC 1990-06-15 07:00:00
Дата кодирования : UTC 2013-03-22 07:17:58
Дата пометки : UTC 2013-03-22 08:16:43
Правообладатель : © Touchstone Pictures, Silver Screen Partners IV, Mulholland Productions
Обложка : Yes
Примечание : «Their turf. Their game. Their rules. They didn't count on HIS law...»
sonm : Dick Tracy
desc : Тридцатые годы. Чикаго. В городе всем заправляет банда головорезов, которых никто не может остановить. Единственный, кому это под силу, — отважный сыщик Дик Трэйси. И он не отступит, даже если на его пути оказывается главарь мафии.
ldes : Тридцатые годы. Чикаго. В городе всем заправляет банда головорезов, которых никто не может остановить. Единственный, кому это под силу, — отважный сыщик Дик Трэйси. И он не отступит, даже если на его пути оказывается главарь мафии. Но сердце бесстрашного героя может не устоять перед чарами соблазнительной красотки… / Calling Dick Tracy ... the worldwide blockbuster and the most talked about movie of the year. Warren Beatty heads a star cast in this story of a tough detective with a soft heart and a "Chico" on the street with a huge appetite for adventure. Together they face the most picturesque gangsters ever assembled to release crime on the streets of their city. With its incredible blend of action, adventure, music and incredible special effects, DICK TRACY is an experience that will thrill all that you can not miss.
stik : 9
rtng : 0
akID : -1
cnID : 566696033
xid : Apple:vendor_id:1990-1701
iTunMOVI :  /  /  /  /   cast /    /      /       name /       Уоррен Битти /      /      /       name /       Чарли Корсмо /      /      /       name /       Майкл Донован О’Донелл /      /      /       name /       Джим Уилки /      /      /       name /       Стиг Элдред /      /      /       name /       Нил Саммерс /      /      /       name /       Чак Хикс /      /      /       name /       Лоуренс Стивен Мейерс /      /      /       name /       Уильям Форсайт /      /      /       name /       Эд О’Росс /      /    /   directors /    /      /       name /       Уоррен Битти /      /    /   producers /    /      /       name /       Уоррен Битти /      /      /       name /       Джон Ландау /      /      /       name /       Арт Линсон /      /    /   screenwriters /    /      /       name /       Джим Кэш /      /      /       name /       Джек Эппс мл. /      /      /       name /       Честер Гулд /      /    /   studio /   © Touchstone Pictures, Silver Screen Partners IV, Mulholland Productions  /  /
Видео #1
Идентификатор : 1
Формат : AVC
Формат/Информация : Advanced Video Codec
Профиль формата : [url=mailto:[email protected]][email protected][/url]
Параметр CABAC формата : Нет
Параметр ReFrames формата : 2 кадра
Идентификатор кодека : avc1
Идентификатор кодека/Информация : Advanced Video Coding
Продолжительность : 1 ч. 45 м.
Битрейт : 1800 Кбит/сек
Максимальный битрейт : 6497 Кбит/сек
Ширина : 640 пикселей
Высота : 456 пикселей
Соотношение сторон : 1,85:1
Режим частоты кадров : Постоянный
Частота кадров : 23,976 кадра/сек
Цветовое пространство : YUV
Субдискретизация насыщенности : 4:2:0
Битовая глубина : 8 бит
Тип развёртки : Прогрессивная
Бит/(Пиксели*Кадры) : 0.257
Размер потока : 1,32 Гбайт (77%)
Библиотека кодирования : x264 core 130 r2273 b3065e6
Настройки программы : cabac=0 / ref=2 / deblock=1:-3:-3 / analyse=0x1:0x131 / me=umh / subme=6 / psy=1 / psy_rd=1.00:0.15 / mixed_ref=1 / me_range=48 / chroma_me=1 / trellis=2 / 8x8dct=0 / cqm=0 / deadzone=21,11 / fast_pskip=0 / chroma_qp_offset=-3 / threads=12 / lookahead_threads=2 / sliced_threads=0 / slices=1 / nr=0 / decimate=0 / interlaced=0 / bluray_compat=0 / constrained_intra=0 / bframes=0 / weightp=0 / keyint=250 / keyint_min=23 / scenecut=40 / intra_refresh=0 / rc_lookahead=120 / rc=2pass / mbtree=1 / bitrate=1800 / ratetol=1.0 / qcomp=0.60 / qpmin=0 / qpmax=69 / qpstep=4 / cplxblur=20.0 / qblur=0.5 / vbv_maxrate=5000 / vbv_bufsize=5000 / nal_hrd=none / ip_ratio=1.40 / aq=1:0.90
Язык : English
Дата кодирования : UTC 2013-03-22 07:17:58
Дата пометки : UTC 2013-03-22 07:18:17
Основные цвета : BT.709
Характеристики трансфера : BT.709
Коэффициенты матрицы : BT.709
Видео #2
Идентификатор : 9
Формат : JPEG
Идентификатор кодека : jpeg
Продолжительность : 1 ч. 45 м.
Duration_LastFrame : -4 м. 54 с.
Вид битрейта : Переменный
Битрейт : 713 бит/сек
Ширина : 640 пикселей
Высота : 344 пикселя
Соотношение сторон : 1,85:1
Режим частоты кадров : Постоянный
Частота кадров : 0,002 кадр/сек
Цветовое пространство : YUV
Субдискретизация насыщенности : 4:2:0
Битовая глубина : 8 бит
Метод сжатия : С потерями
Бит/(Пиксели*Кадры) : 1.619
Размер потока : 478 Кбайт (0%)
Язык : English
Дата кодирования : UTC 2013-03-22 08:16:26
Дата пометки : UTC 2013-03-22 08:16:26
Аудио #1
Идентификатор : 2
Формат : AAC
Формат/Информация : Advanced Audio Codec
Профиль формата : LC
Идентификатор кодека : 40
Продолжительность : 1 ч. 45 м.
Вид битрейта : Переменный
Битрейт : 139 Кбит/сек
Максимальный битрейт : 150 Кбит/сек
Каналы : 2 канала
Расположение каналов : Front: L R
Частота : 48,0 КГц
Метод сжатия : С потерями
Размер потока : 105 Мбайт (6%)
Заголовок : AAC Russian (SV Dubel)
Язык : Russian
Дата кодирования : UTC 2013-03-22 07:18:08
Дата пометки : UTC 2013-03-22 07:18:17
Аудио #2
Идентификатор : 3
Формат : AAC
Формат/Информация : Advanced Audio Codec
Профиль формата : LC
Идентификатор кодека : 40
Продолжительность : 1 ч. 45 м.
Вид битрейта : Переменный
Битрейт : 200 Кбит/сек
Максимальный битрейт : 226 Кбит/сек
Каналы : 2 канала
Расположение каналов : Front: L R
Частота : 48,0 КГц
Метод сжатия : С потерями
Размер потока : 151 Мбайт (9%)
Заголовок : AAC Russian
Язык : Russian
Дата кодирования : UTC 2013-03-22 07:18:10
Дата пометки : UTC 2013-03-22 07:18:17
Аудио #3
Идентификатор : 4
Формат : AAC
Формат/Информация : Advanced Audio Codec
Профиль формата : LC
Идентификатор кодека : 40
Продолжительность : 1 ч. 45 м.
Вид битрейта : Переменный
Битрейт : 187 Кбит/сек
Максимальный битрейт : 228 Кбит/сек
Каналы : 2 канала
Расположение каналов : Front: L R
Частота : 48,0 КГц
Метод сжатия : С потерями
Размер потока : 141 Мбайт (8%)
Заголовок : AAC English
Язык : English
Дата кодирования : UTC 2013-03-22 07:18:14
Дата пометки : UTC 2013-03-22 07:18:17
Текст #1
Идентификатор : 5
Формат : Timed text
Режим смешивания : sbtl
Идентификатор кодека : tx3g
Продолжительность : 1 ч. 45 м.
Вид битрейта : Переменный
Битрейт : 102 бит/сек
Размер потока : 78,2 Кбайт (0%)
Заголовок : Russian Subtitle
Язык : Russian
Дата кодирования : UTC 2013-03-22 07:18:17
Дата пометки : UTC 2013-03-22 07:18:17
Текст #2
Идентификатор : 6
Формат : Timed text
Режим смешивания : sbtl
Идентификатор кодека : tx3g
Продолжительность : 1 ч. 45 м.
Вид битрейта : Переменный
Битрейт : 79 бит/сек
Размер потока : 60,6 Кбайт (0%)
Заголовок : English Subtitle
Язык : English
Дата кодирования : UTC 2013-03-22 07:18:17
Дата пометки : UTC 2013-03-22 07:18:17
Текст #3
Идентификатор : 7
Формат : Timed text
Режим смешивания : sbtl
Идентификатор кодека : tx3g
Продолжительность : 1 ч. 45 м.
Вид битрейта : Переменный
Битрейт : 78 бит/сек
Размер потока : 60,2 Кбайт (0%)
Заголовок : SDH
Язык : English
Дата кодирования : UTC 2013-03-22 07:18:17
Дата пометки : UTC 2013-03-22 07:18:17
Текст #4
Идентификатор : 8
Формат : Apple text
Идентификатор кодека : text
Продолжительность : 1 ч. 45 м.
Duration_LastFrame : -4 м. 54 с.
Вид битрейта : Переменный
Битрейт : 0 бит/сек
Размер потока : 255 байт (0%)
Язык : English
Дата кодирования : UTC 2013-03-22 08:16:22
Дата пометки : UTC 2013-03-22 08:16:22
Меню
00:00:00.000 : Chapter 1
00:10:00.000 : Chapter 2
00:20:00.000 : Chapter 3
00:30:00.000 : Chapter 4
00:40:00.000 : Chapter 5
00:50:00.000 : Chapter 6
01:00:00.000 : Chapter 7
01:10:00.000 : Chapter 8
01:20:00.000 : Chapter 9
01:30:00.000 : Chapter 10
01:40:00.000 : Chapter 11

x264 Log


x264 [info]: frame I:2657 Avg QP:15.68 size: 27946
x264 [info]: frame P:148522 Avg QP:17.81 size: 9052
x264 [info]: mb I I16..4: 32.2% 0.0% 67.8%
x264 [info]: mb P I16..4: 0.5% 0.0% 1.3% P16..4: 59.2% 19.7% 11.2% 1.1% 0.5% skip: 6.6%
x264 [info]: coded y,uvDC,uvAC intra: 73.3% 78.2% 64.1% inter: 43.8% 41.5% 26.9%
x264 [info]: i16 v,h,dc,p: 52% 10% 9% 29%
x264 [info]: i4 v,h,dc,ddl,ddr,vr,hd,vl,hu: 32% 14% 15% 7% 7% 8% 6% 7% 4%
x264 [info]: i8c dc,h,v,p: 52% 14% 26% 8%
x264 [info]: ref P L0: 74.3% 25.7%
x264 [info]: kb/s:1799.91
Скриншоты:          -Тэги и обложка

Tags & Cover


Sort Name: Dick Tracy
XID: Apple:vendor_id:1990-1701
contentID: 566696033
Copyright: © Touchstone Pictures, Silver Screen Partners IV, Mulholland Productions
Screenwriters: Джим Кэш, Джек Эппс мл., Честер Гулд
Producers: Уоррен Битти, Джон Ландау, Арт Линсон
Director: Уоррен Битти
Cast: Уоррен Битти, Чарли Корсмо, Майкл Донован О’Донелл, Джим Уилки, Стиг Элдред, Нил Саммерс, Чак Хикс, Лоуренс Стивен Мейерс, Уильям Форсайт, Эд О’Росс
Studio: © Touchstone Pictures, Silver Screen Partners IV, Mulholland Productions
Rating: 3
Long Description: Тридцатые годы. Чикаго. В городе всем заправляет банда головорезов, которых никто не может остановить. Единственный, кому это под силу, — отважный сыщик Дик Трэйси. И он не отступит, даже если на его пути оказывается главарь мафии. Но сердце бесстрашного героя может не устоять перед чарами соблазнительной красотки…
Calling Dick Tracy ... the worldwide blockbuster and the most talked about movie of the year. Warren Beatty heads a star cast in this story of a tough detective with a soft heart and a "Chico" on the street with a huge appetite for adventure. Together they face the most picturesque gangsters ever assembled to release crime on the streets of their city. With its incredible blend of action, adventure, music and incredible special effects, DICK TRACY is an experience that will thrill all that you can not miss.
Description: Тридцатые годы. Чикаго. В городе всем заправляет банда головорезов, которых никто не может остановить. Единственный, кому это под силу, — отважный сыщик Дик Трэйси. И он не отступит, даже если на его пути оказывается главарь мафии.
Release Date: 1990-06-15T07:00:00Z
Genre: Drama
Comments: «Their turf. Their game. Their rules. They didn't count on HIS law...»
Artist: Warren Beatty
Name: Dick Tracy

Thx

За исходник спасибо: [ Рип от EbP!/color]
-

Релиз подготовлен для просмотра на Apple TV, iPad.
Для просмотра данного релиза на компьютере с ОС Windows рекомендуется использовать VLC media player.
Вне форума [Профиль] [ЛС]
Показать сообщения:    
Ответить на тему

Текущее время: Сегодня 05:09

Часовой пояс: GMT + 3



Вы не можете начинать темы
Вы не можете отвечать на сообщения
Вы не можете редактировать свои сообщения
Вы не можете удалять свои сообщения
Вы не можете голосовать в опросах
Вы не можете прикреплять файлы к сообщениям
Вы не можете скачивать файлы