Сегодня идет свободное скачивание без начисления Download

Крамер против Крамера / Kramer vs. Kramer (1979) [720p] BDRip

Ответить на тему
 
Автор
Сообщение

UndegraundMen ®

Стаж: 3 года 9 месяцев

Сообщений: 28329

Торрент-статистика

Пост 24-Мар-2013 04:16

[Цитировать]

Крамер против Крамера / Kramer vs. Kramer (1979) BDRip-«There are three sides to this love story!»
Русское название: Крамер против Крамера
Оригинальное название: Kramer vs. Kramer
Год выпуска: 1979
Жанр: Драма
Описание фильма:
Тед Крамер, целиком посвятив себя карьере, не замечает того, что происходит в собственной семье. Поэтому от него уходит жена, оставляя незадачливого отца заботиться о шестилетнем сыне.
Теперь Крамер старший должен выступить в непривычной роли: ему предстоит ухаживать за Крамером младшим, проводить с ним больше времени и, наконец, попытаться проникнуть в хрупкий и ранимый мир ребенка. Но в тот момент, когда отец и сын становятся настоящими друзьями, раскаявшаяся мать возвращается. И она хочет забрать мальчика
Режиссер: Роберт Бентон
Актеры: Дастин Хоффман, Мэрил Стрип, Джейн Александр, Джастин Генри, Ховард Дафф, Джордж Коу, ДжоБет Уильямс, Билл Моор, Хоуланд Чемберлен, Jack Ramage
Продолжительность: 01:44:48
Перевод: Дублированный
Язык субтитров: Русские, Английские
Вид субтитров: Вшитые

Дата мировой премьеры: 19 декабря 1979
Дата выхода DVD релиза: 11 ноября 2010, «Columbia/Sony»
Видеокодек: MPEG-4 AVC/H.264
Битрейт видео: ~~7428 Kbps
Размер кадра: 1280x692
Качество видео: BDRip
Аудио 1: AC3 Русский 2.0 / 48 kHz / 192 kbps / 16-bit Дублированный
Аудио 2: DTS Английский 6ch / 48 kHz /1510 kbps / 24-bit Оригинал
Сэмпл: Ссылка

MediaInfo

Общее
Уникальный идентификатор : 233696918971962499073691315062312200095 (0xAFD063B0C2E736ECA68EC80B1462E79F)
Полное имя : C:\Xvid4PSP\Kramer vs. Kramer (1979) [720p] BDRip-AVC.mkv
Формат : Matroska
Версия формата : Version 4 / Version 2
Размер файла : 6,69 Гбайт
Продолжительность : 1 ч. 44 м.
Общий поток : 9133 Кбит/сек
Название фильма : Kramer vs Kramer (1979) - Release for HDCLUB
Дата кодирования : UTC 2013-03-20 10:35:49
Программа кодирования : mkvmerge v6.1.0 ('Old Devil') built on Mar 2 2013 14:32:37
Библиотека кодирования : libebml v1.3.0 + libmatroska v1.4.0
Attachment : Yes / Yes / Yes
Видео
Идентификатор : 1
Формат : AVC
Формат/Информация : Advanced Video Codec
Профиль формата : [url=mailto:[email protected]][email protected][/url]
Параметр CABAC формата : Да
Параметр ReFrames формата : 9 кадров
Идентификатор кодека : V_MPEG4/ISO/AVC
Продолжительность : 1 ч. 44 м.
Битрейт : 7428 Кбит/сек
Ширина : 1280 пикселей
Высота : 692 пикселя
Соотношение сторон : 1,85:1
Режим частоты кадров : Постоянный
Частота кадров : 23,976 кадра/сек
Цветовое пространство : YUV
Субдискретизация насыщенности : 4:2:0
Битовая глубина : 8 бит
Тип развёртки : Прогрессивная
Бит/(Пиксели*Кадры) : 0.350
Размер потока : 5,31 Гбайт (79%)
Заголовок : Release for HDCLUB
Библиотека кодирования : x264 core 66 r1113M cc4f807
Настройки программы : cabac=1 / ref=9 / deblock=1:-3:-3 / analyse=0x3:0x133 / me=umh / subme=9 / psy_rd=1.2:0.0 / mixed_ref=1 / me_range=32 / chroma_me=1 / trellis=2 / 8x8dct=1 / cqm=0 / deadzone=21,11 / chroma_qp_offset=-2 / threads=3 / nr=0 / decimate=0 / mbaff=0 / bframes=6 / b_pyramid=1 / b_adapt=2 / b_bias=0 / direct=3 / wpredb=1 / keyint=250 / keyint_min=25 / scenecut=40(pre) / rc=2pass / bitrate=7428 / ratetol=1.0 / qcomp=0.60 / qpmin=10 / qpmax=51 / qpstep=4 / cplxblur=20.0 / qblur=0.5 / ip_ratio=1.40 / pb_ratio=1.30 / aq=1:0.80
Язык : English
Default : Да
Forced : Нет
Аудио #1
Идентификатор : 2
Формат : AC-3
Формат/Информация : Audio Coding 3
Расширение режима : CM (complete main)
Параметр Endianness формата : Big
Идентификатор кодека : A_AC3
Продолжительность : 1 ч. 44 м.
Вид битрейта : Постоянный
Битрейт : 192 Кбит/сек
Каналы : 2 канала
Расположение каналов : Front: L R
Частота : 48,0 КГц
Битовая глубина : 16 бит
Метод сжатия : С потерями
Размер потока : 144 Мбайт (2%)
Заголовок : AC3 2.0 192k Dub Lenfilm
Язык : Russian
Default : Да
Forced : Нет
Аудио #2
Идентификатор : 3
Формат : DTS
Формат/Информация : Digital Theater Systems
Режим : 16
Параметр Endianness формата : Big
Идентификатор кодека : A_DTS
Продолжительность : 1 ч. 44 м.
Вид битрейта : Постоянный
Битрейт : 1510 Кбит/сек
Каналы : 6 каналов
Расположение каналов : Front: L C R, Side: L R, LFE
Частота : 48,0 КГц
Битовая глубина : 24 бит
Метод сжатия : С потерями
Размер потока : 1,11 Гбайт (17%)
Заголовок : DTS 5.1 @ 1536kbps
Язык : English
Default : Нет
Forced : Нет
Текст #1
Идентификатор : 4
Формат : UTF-8
Идентификатор кодека : S_TEXT/UTF8
Идентификатор кодека/Информация : UTF-8 Plain Text
Язык : Russian
Default : Да
Forced : Нет
Текст #2
Идентификатор : 5
Формат : ASS
Идентификатор кодека : S_TEXT/ASS
Идентификатор кодека/Информация : Advanced Sub Station Alpha
Метод сжатия : Без потерь
Язык : English
Default : Нет
Forced : Нет
Скриншоты:
         
Время раздачи: 24/7
Вне форума [Профиль] [ЛС]
Показать сообщения:    
Ответить на тему

Текущее время: Сегодня 22:19

Часовой пояс: GMT + 3



Вы не можете начинать темы
Вы не можете отвечать на сообщения
Вы не можете редактировать свои сообщения
Вы не можете удалять свои сообщения
Вы не можете голосовать в опросах
Вы не можете прикреплять файлы к сообщениям
Вы не можете скачивать файлы